<?xml version="1.0" standalone="no"?>
<!DOCTYPE svg PUBLIC "-//W3C//DTD SVG 1.1//EN" "http://www.w3.org/Graphics/SVG/1.1/DTD/svg11.dtd" >
<svg>
<metadata>
Created by FontForge 20090622 at Tue Jul 14 06:38:46 2020
 By deploy user
Copyright (c) Font Awesome
</metadata>
<defs>
<font id="FontAwesome5Pro-Light" horiz-adv-x="512" >
  <font-face 
    font-family="Font Awesome 5 Pro Light"
    font-weight="300"
    font-stretch="normal"
    units-per-em="512"
    panose-1="2 0 3 3 0 0 0 0 0 0"
    ascent="448"
    descent="-64"
    x-height="313"
    cap-height="421"
    bbox="-28 -71 3992 449.261"
    underline-thickness="25"
    underline-position="-52"
    unicode-range="U+0020-U+F89B"
  />
<missing-glyph horiz-adv-x="256" 
d="M25 0v298h206v-298h-206zM50 25h156v248h-156v-248z" />
    <glyph glyph-name="glass-martini" unicode="Glass&#x2d;Martini" 
d="M502 390l-230 -230v-192h53q11 0 19 -8t8 -19q0 -5 -5 -5h-182q-5 0 -5 5q0 11 8 19t19 8h53v192l-230 230q-16 16 -7.5 37t31.5 21h444q23 0 31.5 -21t-7.5 -37zM256 190l162 162l61 61q1 1 0.5 2t-1.5 1h-444q-1 0 -1.5 -1t0.5 -2z" />
    <glyph glyph-name="music" unicode="Music" 
d="M512 416v-336q0 -33 -28 -56.5t-68 -23.5t-68 23.5t-28 56.5t28 56.5t68 23.5q36 0 64 -21v149l-288 -96v-176q0 -33 -28 -56.5t-68 -23.5t-68 23.5t-28 56.5t28 56.5t68 23.5q36 0 64 -21v245q0 23 21 30l291 96q5 2 9 2q13 0 22 -9.5t9 -22.5zM96 -32q26 0 45 14t19 34
t-19 34t-45 14t-45 -14t-19 -34t19 -34t45 -14zM480 322v93l-289 -95h1v-94zM416 32q26 0 45 14t19 34t-19 34t-45 14t-45 -14t-19 -34t19 -34t45 -14z" />
    <glyph glyph-name="search" unicode="Search" 
d="M508 -34q9 -8 0 -17l-9 -9q-9 -9 -17 0l-129 128q-4 4 -4 9v10q-60 -55 -141 -55q-86 0 -147 61t-61 147t61 147t147 61t147 -61t61 -147q0 -81 -55 -141h10q5 0 9 -4zM208 64q73 0 124.5 51.5t51.5 124.5t-51.5 124.5t-124.5 51.5t-124.5 -51.5t-51.5 -124.5
t51.5 -124.5t124.5 -51.5z" />
    <glyph glyph-name="heart" unicode="Heart" 
d="M462 385q47 -40 50 -102t-40 -105l-194 -200q-9 -10 -22 -10t-23 10l-193 200q-43 43 -40 105t50 102q30 26 67 30t67.5 -8.5t51.5 -34.5l20 -21l20 21q38 39 91.5 43.5t94.5 -30.5zM449 200q31 32 31 78t-38 83q-26 21 -56.5 22t-52 -9t-34.5 -25l-43 -44l-43 44
q-14 15 -35 25.5t-51.5 9t-56.5 -22.5q-38 -37 -38 -83.5t31 -77.5l193 -200z" />
    <glyph glyph-name="star" unicode="Star" horiz-adv-x="576" 
d="M528 276q20 -2 26 -21t-8 -33l-106 -103l25 -146q3 -19 -13 -30.5t-33 -2.5l-131 68l-131 -68q-17 -10 -33 2t-13 31l25 146l-106 103q-14 14 -8 33t26 21l146 22l65 132q9 18 29 18t29 -18l65 -132zM406 130l118 115l-163 23l-73 148l-73 -148l-163 -23l118 -115
l-28 -162l146 76l146 -76z" />
    <glyph glyph-name="user" unicode="User" horiz-adv-x="448" 
d="M314 160q55 0 94.5 -39.5t39.5 -94.5v-42q0 -20 -14 -34t-34 -14h-352q-20 0 -34 14t-14 34v42q0 55 39.5 94.5t94.5 39.5q13 0 38.5 -8t51.5 -8t52 8t38 8zM416 -16v42q0 42 -30 72t-72 30q-6 0 -33.5 -8t-56.5 -8t-56.5 8t-33.5 8q-42 0 -72 -30t-30 -72v-42
q0 -7 4.5 -11.5t11.5 -4.5h352q7 0 11.5 4.5t4.5 11.5zM224 192q-53 0 -90.5 37.5t-37.5 90.5t37.5 90.5t90.5 37.5t90.5 -37.5t37.5 -90.5t-37.5 -90.5t-90.5 -37.5zM224 416q-40 0 -68 -28t-28 -68t28 -68t68 -28t68 28t28 68t-28 68t-68 28z" />
    <glyph glyph-name="film" unicode="Film" 
d="M488 384q10 0 17 -7t7 -17v-336q0 -10 -7 -17t-17 -7h-8v20q0 12 -12 12h-40q-12 0 -12 -12v-20h-320v20q0 12 -12 12h-40q-12 0 -12 -12v-20h-8q-10 0 -17 7t-7 17v336q0 10 7 17t17 7h8v-20q0 -12 12 -12h40q12 0 12 12v20h320v-20q0 -12 12 -12h40q12 0 12 12v20h8z
M96 76v40q0 12 -12 12h-40q-12 0 -12 -12v-40q0 -12 12 -12h40q12 0 12 12zM96 172v40q0 12 -12 12h-40q-12 0 -12 -12v-40q0 -12 12 -12h40q12 0 12 12zM96 268v40q0 12 -12 12h-40q-12 0 -12 -12v-40q0 -12 12 -12h40q12 0 12 12zM384 44v120q0 12 -12 12h-232
q-12 0 -12 -12v-120q0 -12 12 -12h232q12 0 12 12zM384 220v120q0 12 -12 12h-232q-12 0 -12 -12v-120q0 -12 12 -12h232q12 0 12 12zM480 76v40q0 12 -12 12h-40q-12 0 -12 -12v-40q0 -12 12 -12h40q12 0 12 12zM480 172v40q0 12 -12 12h-40q-12 0 -12 -12v-40
q0 -12 12 -12h40q12 0 12 12zM480 268v40q0 12 -12 12h-40q-12 0 -12 -12v-40q0 -12 12 -12h40q12 0 12 12z" />
    <glyph glyph-name="th-large" unicode="Th&#x2d;Large" 
d="M0 368q0 20 14 34t34 14h416q20 0 34 -14t14 -34v-352q0 -20 -14 -34t-34 -14h-416q-20 0 -34 14t-14 34v352zM240 384h-192q-7 0 -11.5 -4.5t-4.5 -11.5v-160h208v176zM32 16q0 -7 4.5 -11.5t11.5 -4.5h192v176h-208v-160zM272 0h192q7 0 11.5 4.5t4.5 11.5v160h-208
v-176zM480 208v160q0 7 -4.5 11.5t-11.5 4.5h-192v-176h208z" />
    <glyph glyph-name="th" unicode="Th" 
d="M0 368q0 20 14 34t34 14h416q20 0 34 -14t14 -34v-352q0 -20 -14 -34t-34 -14h-416q-20 0 -34 14t-14 34v352zM320 384h-128v-107h128v107zM480 139v106h-128v-106h128zM320 139v106h-128v-106h128zM32 245v-106h128v106h-128zM160 384h-112q-7 0 -11.5 -4.5t-4.5 -11.5
v-91h128v107zM32 16q0 -7 4.5 -11.5t11.5 -4.5h112v107h-128v-91zM192 0h128v107h-128v-107zM352 0h112q7 0 11.5 4.5t4.5 11.5v91h-128v-107zM480 277v91q0 7 -4.5 11.5t-11.5 4.5h-112v-107h128z" />
    <glyph glyph-name="th-list" unicode="Th&#x2d;List" 
d="M0 368q0 20 14 34t34 14h416q20 0 34 -14t14 -34v-352q0 -20 -14 -34t-34 -14h-416q-20 0 -34 14t-14 34v352zM480 368q0 7 -4.5 11.5t-11.5 4.5h-272v-107h288v91zM480 139v106h-288v-106h288zM32 245v-106h128v106h-128zM160 384h-112q-7 0 -11.5 -4.5t-4.5 -11.5v-91
h128v107zM32 16q0 -7 4.5 -11.5t11.5 -4.5h112v107h-128v-91zM192 0h272q7 0 11.5 4.5t4.5 11.5v91h-288v-107z" />
    <glyph glyph-name="check" unicode="Check" horiz-adv-x="448" 
d="M414 356q8 9 16 0l12 -11q8 -9 0 -17l-300 -300q-9 -9 -17 0l-119 119q-8 8 0 17l12 11q3 4 8 4t8 -4l99 -99z" />
    <glyph glyph-name="times" unicode="Times" horiz-adv-x="320" 
d="M194 192l124 -124q5 -5 0 -11l-23 -23q-6 -5 -11 0l-21 22l-103 102l-124 -124q-5 -5 -11 0l-23 23q-5 6 0 11l124 124l-124 124q-5 5 0 11l23 23q6 5 11 0l124 -124l124 124q5 5 11 0l23 -23q5 -6 0 -11l-22 -21z" />
    <glyph glyph-name="search-plus" unicode="Search&#x2d;Plus" 
d="M320 244v-8q0 -5 -3.5 -8.5t-8.5 -3.5h-84v-84q0 -5 -3.5 -8.5t-8.5 -3.5h-8q-5 0 -8.5 3.5t-3.5 8.5v84h-84q-5 0 -8.5 3.5t-3.5 8.5v8q0 5 3.5 8.5t8.5 3.5h84v84q0 5 3.5 8.5t8.5 3.5h8q5 0 8.5 -3.5t3.5 -8.5v-84h84q5 0 8.5 -3.5t3.5 -8.5zM508 -49l-11 -11
q-9 -9 -17 0l-129 129q-3 3 -3 8v9q-60 -54 -140 -54q-86 0 -146.5 60t-61.5 145q-1 88 61 150t150 61q85 -1 145 -61.5t60 -146.5q0 -80 -54 -140h9q5 0 8 -3l129 -129q9 -8 0 -17zM384 240q0 73 -51.5 124.5t-124.5 51.5t-124.5 -51.5t-51.5 -124.5t51.5 -124.5
t124.5 -51.5t124.5 51.5t51.5 124.5z" />
    <glyph glyph-name="search-minus" unicode="Search&#x2d;Minus" 
d="M308 224h-200q-5 0 -8.5 3.5t-3.5 8.5v8q0 5 3.5 8.5t8.5 3.5h200q5 0 8.5 -3.5t3.5 -8.5v-8q0 -5 -3.5 -8.5t-8.5 -3.5zM508 -49l-11 -11q-9 -9 -17 0l-129 129q-3 3 -3 8v9q-60 -54 -140 -54q-86 0 -146.5 60t-61.5 145q-1 88 61 150t150 61q85 -1 145 -61.5t60 -146.5
q0 -80 -54 -140h9q5 0 8 -3l129 -129q9 -8 0 -17zM384 240q0 73 -51.5 124.5t-124.5 51.5t-124.5 -51.5t-51.5 -124.5t51.5 -124.5t124.5 -51.5t124.5 51.5t51.5 124.5z" />
    <glyph glyph-name="power-off" unicode="Power&#x2d;Off" 
d="M388 402q54 -34 85 -89.5t31 -120.5q0 -103 -72.5 -175.5t-175 -72.5t-175.5 72.5t-73 175.5q0 65 31 120.5t85 89.5q10 7 16 -4l4 -8q6 -9 -4 -16q-46 -29 -73 -77.5t-27 -104.5q0 -90 63.5 -153t152.5 -63q90 0 153 63.5t63 152.5q0 57 -27 105t-73 77q-10 6 -4 16l4 7
q6 11 16 5zM272 172q0 -12 -12 -12h-8q-12 0 -12 12v264q0 12 12 12h8q12 0 12 -12v-264z" />
    <glyph glyph-name="signal" unicode="Signal" horiz-adv-x="640" 
d="M208 160q8 0 8 -8v-208q0 -8 -8 -8h-32q-8 0 -8 8v208q0 8 8 8h32zM80 64q8 0 8 -8v-112q0 -8 -8 -8h-32q-8 0 -8 8v112q0 8 8 8h32zM336 256q8 0 8 -8v-304q0 -8 -8 -8h-32q-8 0 -8 8v304q0 8 8 8h32zM464 352q8 0 8 -8v-400q0 -8 -8 -8h-32q-8 0 -8 8v400q0 8 8 8h32z
M592 448q8 0 8 -8v-496q0 -8 -8 -8h-32q-8 0 -8 8v496q0 8 8 8h32z" />
    <glyph glyph-name="cog" unicode="Cog" 
d="M483 149q16 -10 11 -28q-17 -56 -58 -99q-13 -14 -29 -5l-33 19q-19 -15 -42 -24v-38q0 -19 -19 -23q-57 -14 -114 0q-19 4 -19 23v38q-23 9 -42 24l-33 -19q-16 -9 -29 5q-41 43 -58 99q-5 18 11 28l33 19q-2 12 -2 24t2 24l-33 19q-16 10 -11 28q17 56 58 99
q13 14 29 5l33 -19q19 15 42 24v38q0 19 19 23q57 14 114 0q19 -4 19 -23v-38q23 -9 42 -24l33 19q16 9 29 -5q41 -43 58 -99q5 -18 -11 -28l-33 -19q2 -12 2 -24t-2 -24zM417 48q30 34 44 76l-46 27q5 27 5 41t-5 41l46 27q-14 42 -44 76l-46 -27q-21 18 -33.5 25t-37.5 16
v54q-22 4 -44 4t-44 -4v-54q-25 -9 -37.5 -16t-33.5 -25l-46 27q-30 -34 -44 -76l46 -27q-5 -27 -5 -41t5 -41l-46 -27q14 -42 44 -76l46 27q21 -18 33.5 -25t37.5 -16v-54q22 -4 44 -4t44 4v54q25 9 37.5 16.5t33.5 24.5zM256 288q40 0 68 -28t28 -68t-28 -68t-68 -28
t-68 28t-28 68t28 68t68 28zM256 128q26 0 45 19t19 45t-19 45t-45 19t-45 -19t-19 -45t19 -45t45 -19z" />
    <glyph glyph-name="home" unicode="Home" horiz-adv-x="576" 
d="M541 219q3 -3 3 -6t-2 -5l-10 -13q-2 -3 -6 -3q-3 0 -5 2l-41 33v-243q0 -6 -4.5 -11t-11.5 -5h-128q-7 0 -11.5 4.5t-4.5 11.5v128h-64v-128q0 -6 -4.5 -11t-11.5 -5h-128q-7 0 -11.5 5t-4.5 11v243l-41 -33q-2 -2 -5 -2q-4 0 -6 3l-10 13q-2 2 -2 5t3 6l233 190
q9 7 20 7t20 -7l140 -114v51q0 6 6 6h20q6 0 6 -6v-77zM448 0v253l-160 131l-160 -131v-253h96v128q0 7 4.5 11.5t11.5 4.5h96q7 0 11.5 -4.5t4.5 -11.5v-128h96z" />
    <glyph glyph-name="clock" unicode="Clock" 
d="M256 440q103 0 175.5 -72.5t72.5 -175.5t-72.5 -175.5t-175.5 -72.5t-175.5 72.5t-72.5 175.5t72.5 175.5t175.5 72.5zM472 192q0 90 -63.5 153t-152.5 63q-90 0 -153 -63.5t-63 -152.5q0 -90 63.5 -153t152.5 -63q90 0 153 63.5t63 152.5zM323 104l-81 59q-5 3 -5 9v160
q0 12 12 12h14q12 0 12 -12v-146l71 -52q9 -7 2 -16l-8 -12q-7 -9 -17 -2z" />
    <glyph glyph-name="road" unicode="Road" horiz-adv-x="576" 
d="M279 256q-4 0 -7 4t-2 9l3 44q1 7 7 7h16q6 0 7 -7l3 -44q1 -5 -2 -9t-7 -4h-18zM273 144q-5 0 -9 5.5t-4 12.5l5 48q1 14 13 14h20q12 0 13 -14l5 -48q0 -7 -4 -12.5t-9 -5.5h-30zM284 352q-7 0 -6 9l1 16q1 7 6 7h6q5 0 6 -7l1 -16q1 -9 -6 -9h-8zM308 112q12 0 13 -14
l7 -80q1 -7 -3 -12.5t-10 -5.5h-54q-6 0 -10 5.5t-3 12.5l7 80q1 14 13 14h40zM157 384q4 0 6.5 -3t1.5 -7l-106 -362q-3 -12 -15 -12h-28q-9 0 -13.5 7t-1.5 15l149 357q2 5 7 5zM575 22q3 -8 -1.5 -15t-13.5 -7h-28q-12 0 -15 12l-106 362q-1 4 1.5 7t6.5 3q5 0 7 -5z" />
    <glyph glyph-name="download" unicode="Download" 
d="M452 16q0 -8 -6 -14t-14 -6t-14 6t-6 14t6 14t14 6t14 -6t6 -14zM368 36q8 0 14 -6t6 -14t-6 -14t-14 -6t-14 6t-6 14t6 14t14 6zM512 84v-104q0 -18 -13 -31t-31 -13h-424q-18 0 -31 13t-13 31v104q0 18 13 31t31 13h99l-56 56q-19 19 -8.5 44t36.5 25h53v155
q0 17 11.5 28.5t28.5 11.5h96q17 0 28.5 -11.5t11.5 -28.5v-155h53q26 0 36.5 -25t-8.5 -44l-56 -56h99q18 0 31 -13t13 -31zM250 66q6 -5 12 0l140 141q4 4 2 9t-7 5h-85v187q0 8 -8 8h-96q-8 0 -8 -8v-187h-85q-5 0 -7 -5t2 -9zM480 84q0 12 -12 12h-131l-53 -52
q-11 -12 -28 -12t-28 12l-53 52h-131q-12 0 -12 -12v-104q0 -12 12 -12h424q12 0 12 12v104z" />
    <glyph glyph-name="inbox" unicode="Inbox" horiz-adv-x="576" 
d="M567 221q9 -13 9 -29v-144q0 -20 -14 -34t-34 -14h-480q-20 0 -34 14t-14 34v144q0 16 9 29l105 143q6 8 17 14t21 6h272q10 0 21 -6t17 -14zM140 345l-89 -121h137l32 -64h136l32 64h137l-89 121q-4 7 -12 7h-272q-8 0 -12 -7zM544 176q0 7 -4.5 11.5t-11.5 4.5h-120
l-32 -64h-176l-32 64h-120q-7 0 -11.5 -4.5t-4.5 -11.5v-128q0 -7 4.5 -11.5t11.5 -4.5h480q7 0 11.5 4.5t4.5 11.5v128z" />
    <glyph glyph-name="redo" unicode="Redo" 
d="M492 440q12 0 12 -12v-160q0 -12 -12 -12h-160q-12 0 -12 12v10q0 12 12 12h114q-27 53 -78 84.5t-112 31.5q-89 0 -151.5 -63t-62.5 -151q0 -89 63 -151.5t151 -62.5q82 0 143 55q9 7 17 -1l7 -7q9 -9 -1 -17q-71 -64 -166 -64q-103 0 -175.5 72.5t-72.5 175.5
q0 102 72.5 175t174.5 73q68 0 125 -33t90 -90v111q0 12 12 12h10z" />
    <glyph glyph-name="sync" unicode="Sync" 
d="M492 440q12 0 12 -12v-160q0 -12 -12 -12h-160q-12 0 -12 12v10q0 12 12 12h114q-27 53 -78 84.5t-112 31.5q-86 0 -147.5 -59t-66.5 -144q0 -11 -12 -11h-10q-5 0 -8.5 3.5t-3.5 9.5q5 98 77 166.5t171 68.5q67 0 124 -33.5t90 -89.5v111q0 12 12 12h10zM492 192
q5 0 8.5 -3.5t3.5 -9.5q-5 -98 -77 -166.5t-171 -68.5q-67 0 -124 33.5t-90 89.5v-111q0 -12 -12 -12h-10q-12 0 -12 12v160q0 12 12 12h160q12 0 12 -12v-10q0 -12 -12 -12h-114q27 -53 78 -84.5t112 -31.5q86 0 147.5 59t66.5 144q0 11 12 11h10z" />
    <glyph glyph-name="list-alt" unicode="List&#x2d;Alt" 
d="M464 384h-416q-7 0 -11.5 -4.5t-4.5 -11.5v-352q0 -7 4.5 -11.5t11.5 -4.5h416q7 0 11.5 4.5t4.5 11.5v352q0 7 -4.5 11.5t-11.5 4.5zM464 416q20 0 34 -14t14 -34v-352q0 -20 -14 -34t-34 -14h-416q-20 0 -34 14t-14 34v352q0 20 14 34t34 14h416zM128 320
q13 0 22.5 -9.5t9.5 -22.5t-9.5 -22.5t-22.5 -9.5t-22.5 9.5t-9.5 22.5t9.5 22.5t22.5 9.5zM128 224q13 0 22.5 -9.5t9.5 -22.5t-9.5 -22.5t-22.5 -9.5t-22.5 9.5t-9.5 22.5t9.5 22.5t22.5 9.5zM128 128q13 0 22.5 -9.5t9.5 -22.5t-9.5 -22.5t-22.5 -9.5t-22.5 9.5
t-9.5 22.5t9.5 22.5t22.5 9.5zM416 276q0 -6 -6 -6h-212q-6 0 -6 6v24q0 6 6 6h212q6 0 6 -6v-24zM416 180q0 -6 -6 -6h-212q-6 0 -6 6v24q0 6 6 6h212q6 0 6 -6v-24zM416 84q0 -6 -6 -6h-212q-6 0 -6 6v24q0 6 6 6h212q6 0 6 -6v-24z" />
    <glyph glyph-name="lock" unicode="Lock" horiz-adv-x="448" 
d="M400 224q20 0 34 -14t14 -34v-192q0 -20 -14 -34t-34 -14h-352q-20 0 -34 14t-14 34v192q0 20 14 34t34 14h16v64q0 66 47 113t113.5 47t113 -47.5t46.5 -114.5v-62h16zM96 288v-64h256v64q0 53 -37.5 90.5t-90.5 37.5t-90.5 -37.5t-37.5 -90.5zM400 -32q7 0 11.5 4.5
t4.5 11.5v192q0 7 -4.5 11.5t-11.5 4.5h-352q-7 0 -11.5 -4.5t-4.5 -11.5v-192q0 -7 4.5 -11.5t11.5 -4.5h352z" />
    <glyph glyph-name="flag" unicode="Flag" 
d="M344 373q54 0 134 37q12 6 23 -1t11 -21v-261q0 -13 -11 -20q-63 -43 -130 -43q-36 0 -90.5 17.5t-80.5 17.5q-73 0 -136 -29v-122q0 -12 -12 -12h-8q-12 0 -12 12v407q-15 5 -24 18t-8 30q1 18 14.5 31t31.5 14q22 1 37.5 -15.5t12.5 -38.5q36 14 77 14q36 0 90.5 -17.5
t80.5 -17.5zM48 420q-8 0 -14 -6t-6 -14t6 -14t14 -6t14 6t6 14t-6 14t-14 6zM480 131v245q-73 -35 -136 -35q-31 0 -85.5 17.5t-85.5 17.5q-61 0 -109 -35v-236q55 26 136 26q31 0 85.5 -17.5t85.5 -17.5q61 0 109 35z" />
    <glyph glyph-name="headphones" unicode="Headphones" 
d="M256 416q106 0 181 -75t75 -181v-51q0 -10 -8 -14l-24 -14v-1q0 -46 -33 -79t-79 -33h-24q-10 0 -17 7t-7 17v176q0 10 7 17t17 7h24q37 0 66 -21.5t40 -55.5l6 3v42q0 93 -65.5 158.5t-158.5 65.5t-158.5 -65.5t-65.5 -158.5v-42l6 -3q11 34 40 55.5t66 21.5h24
q10 0 17 -7t7 -17v-176q0 -10 -7 -17t-17 -7h-24q-46 0 -79 33t-33 79v1l-24 14q-8 4 -8 14v51q0 106 75 181t181 75zM144 160q-33 0 -56.5 -23.5t-23.5 -56.5t23.5 -56.5t56.5 -23.5h16v160h-16zM368 0q33 0 56.5 23.5t23.5 56.5t-23.5 56.5t-56.5 23.5h-16v-160h16z" />
    <glyph glyph-name="volume-off" unicode="Volume&#x2d;Off" horiz-adv-x="256" 
d="M232 384q9 0 16.5 -6.5t7.5 -17.5v-336q0 -10 -7.5 -17t-16.5 -7q-10 0 -17 7l-89 89h-102q-10 0 -17 7t-7 17v144q0 10 7 17t17 7h102l89 89q7 7 17 7zM224 43v298l-85 -85h-107v-128h107z" />
    <glyph glyph-name="volume-down" unicode="Volume&#x2d;Down" horiz-adv-x="384" 
d="M343 253q19 -9 30 -25.5t11 -36.5t-11 -36.5t-30 -25.5q-6 -3 -12.5 -1t-9 8t-0.5 12.5t8 8.5q23 11 23 34t-23 34q-6 2 -8 8.5t0.5 12.5t9 8t12.5 -1zM231.5 383q9.5 0 17 -7t7.5 -17v-336q0 -10 -7.5 -17t-17 -7t-16.5 7l-89 89h-102q-10 0 -17 7t-7 17v144q0 10 7 17
t17 7h102l89 89q7 7 16.5 7zM224 42v298l-85 -85h-107v-128h107z" />
    <glyph glyph-name="volume-up" unicode="Volume&#x2d;Up" horiz-adv-x="576" 
d="M343 254q19 -9 30 -25.5t11 -36.5t-11 -36.5t-30 -25.5q-6 -3 -12.5 -1t-9 8t-0.5 12.5t8 8.5q23 11 23 34t-23 34q-6 2 -8 8.5t0.5 12.5t9 8t12.5 -1zM231.5 384q9.5 0 17 -7t7.5 -17v-336q0 -10 -7.5 -17t-17 -7t-16.5 7l-89 89h-102q-10 0 -17 7t-7 17v144q0 10 7 17
t17 7h102l89 89q7 7 16.5 7zM224 43v298l-85 -85h-107v-128h107zM422 446q71 -37 112.5 -105.5t41.5 -148.5t-41.5 -148.5t-112.5 -105.5q-15 -8 -22 7q-3 5 -1 11.5t8 9.5q63 34 100 94.5t37 131.5t-37 131.5t-100 94.5q-6 3 -8 9.5t1 11.5q7 15 22 7zM480 192
q0 -50 -24 -92t-65 -66q-6 -3 -12.5 -1.5t-9.5 7.5t-1.5 12.5t7.5 9.5q34 19 53.5 54t19.5 76t-19.5 76t-53.5 54q-6 3 -7.5 9.5t1.5 12.5t9.5 7.5t12.5 -1.5q41 -24 65 -66t24 -92z" />
    <glyph glyph-name="qrcode" unicode="Qrcode" horiz-adv-x="448" 
d="M0 224v192h192v-192h-192zM32 384v-128h128v128h-128zM256 416h192v-192h-192v192zM416 256v128h-128v-128h128zM0 -32v192h192v-192h-192zM32 128v-128h128v128h-128zM64 352h64v-64h-64v64zM384 288h-64v64h64v-64zM64 96h64v-64h-64v64zM416 160h32v-128h-128v32h-32
v-96h-32v192h96v-32h64v32zM416 0h32v-32h-32v32zM352 0h32v-32h-32v32z" />
    <glyph glyph-name="barcode" unicode="Barcode" 
d="M0 0v384h18v-384h-18zM27 0v384h9v-384h-9zM54 0v384h9v-384h-9zM99 0v384h9v-384h-9zM135 0v384h18v-384h-18zM180 0v384h9v-384h-9zM198 0v384h9v-384h-9zM216 0v384h9v-384h-9zM251 0v384h18v-384h-18zM296 0v384h18v-384h-18zM332 0v384h18v-384h-18zM368 0v384h18
v-384h-18zM395 0v384h18v-384h-18zM440 0v384h27v-384h-27zM476 0v384h9v-384h-9zM494 0v384h18v-384h-18z" />
    <glyph glyph-name="tag" unicode="Tag" 
d="M498 222q14 -14 14 -34t-14 -34l-204 -204q-14 -14 -34 -14t-34 14l-212 212q-14 14 -14 34v204q0 20 14 34t34 14h204q20 0 34 -14zM475 177q12 11 0 22l-212 212q-4 5 -11 5h-204q-7 0 -11.5 -4.5t-4.5 -11.5v-204q0 -7 5 -11l212 -212q11 -12 22 0zM144 324
q-8 0 -14 -6t-6 -14t6 -14t14 -6t14 6t6 14t-6 14t-14 6zM144 352q20 0 34 -14t14 -34t-14 -34t-34 -14t-34 14t-14 34t14 34t34 14z" />
    <glyph glyph-name="tags" unicode="Tags" horiz-adv-x="640" 
d="M626 154l-204 -204q-14 -14 -34 -14t-34 14l-2 2l23 22l2 -1q11 -12 22 0l204 204q12 11 0 22l-212 212q-4 5 -11 5h-19l-32 32h51q20 0 34 -14l212 -212q14 -14 14 -34t-14 -34zM252 416h-204q-7 0 -11.5 -4.5t-4.5 -11.5v-204q0 -7 5 -11l212 -212q11 -12 22 0l204 204
q12 11 0 22l-212 212q-4 5 -11 5zM252 448q20 0 34 -14l212 -212q14 -14 14 -34t-14 -34l-204 -204q-14 -14 -34 -14t-34 14l-212 212q-14 14 -14 34v204q0 20 14 34t34 14h204zM144 324q-8 0 -14 -6t-6 -14t6 -14t14 -6t14 6t6 14t-6 14t-14 6zM144 352q20 0 34 -14t14 -34
t-14 -34t-34 -14t-34 14t-14 34t14 34t34 14z" />
    <glyph glyph-name="book" unicode="Book" horiz-adv-x="448" 
d="M356 288h-168q-12 0 -12 12v8q0 12 12 12h168q12 0 12 -12v-8q0 -12 -12 -12zM368 236q0 -12 -12 -12h-168q-12 0 -12 12v8q0 12 12 12h168q12 0 12 -12v-8zM433 -32h3q12 0 12 -12v-8q0 -12 -12 -12h-356q-33 0 -56.5 23.5t-23.5 56.5v352q0 33 23.5 56.5t56.5 23.5h344
q10 0 17 -7t7 -17v-368q0 -16 -15 -22q-7 -32 0 -66zM128 64h288v352h-288v-352zM32 48q21 16 48 16h16v352h-16q-20 0 -34 -14t-14 -34v-320zM404 -32q-5 32 0 64h-324q-30 0 -42.5 -16t0 -32t42.5 -16h324z" />
    <glyph glyph-name="bookmark" unicode="Bookmark" horiz-adv-x="384" 
d="M336 448q20 0 34 -14t14 -34v-464l-192 112l-192 -112v464q0 20 14 34t34 14h288zM352 -8v408q0 7 -4.5 11.5t-11.5 4.5h-288q-7 0 -11.5 -4.5t-4.5 -11.5v-408l160 93z" />
    <glyph glyph-name="print" unicode="Print" 
d="M432 256q33 0 56.5 -23.5t23.5 -56.5v-96q0 -7 -4.5 -11.5t-11.5 -4.5h-80v-112q0 -7 -4.5 -11.5t-11.5 -4.5h-288q-7 0 -11.5 4.5t-4.5 11.5v112h-80q-7 0 -11.5 4.5t-4.5 11.5v96q0 33 23.5 56.5t56.5 23.5h16v160q0 13 9 22.5t21 9.5h181q13 0 22 -9l78 -78
q9 -9 9 -22v-83h16zM320 403v-51h51zM128 416v-160h256v64h-64q-13 0 -22.5 9.5t-9.5 22.5v64h-160zM384 -32v96h-256v-96h256zM480 96v80q0 20 -14 34t-34 14h-352q-20 0 -34 -14t-14 -34v-80h448zM400 184q10 0 17 -7t7 -17t-7 -17t-17 -7t-17 7t-7 17t7 17t17 7z" />
    <glyph glyph-name="camera" unicode="Camera" 
d="M324 384h-131q-11 0 -15 -10l-20 -54h-110q-7 0 -11.5 -4.5t-4.5 -11.5v-288q0 -7 4.5 -11.5t11.5 -4.5h416q7 0 11.5 4.5t4.5 11.5v288q0 7 -4.5 11.5t-11.5 4.5h-110l-22 59q-2 5 -8 5zM324 416q28 0 38 -26l14 -38h88q20 0 34 -14t14 -34v-288q0 -20 -14 -34t-34 -14
h-416q-20 0 -34 14t-14 34v288q0 20 14 34t34 14h88l12 33q6 14 18 22.5t27 8.5h131zM256 40q-50 0 -85 35t-35 85t35 85t85 35t85 -35t35 -85t-35 -85t-85 -35zM256 248q-36 0 -62 -26t-26 -62t26 -62t62 -26t62 26t26 62t-26 62t-62 26z" />
    <glyph glyph-name="font" unicode="Font" horiz-adv-x="448" 
d="M424 0q8 0 8 -8v-16q0 -8 -8 -8h-112q-8 0 -8 8v16q0 8 8 8h42l-45 128h-170l-45 -128h42q8 0 8 -8v-16q0 -8 -8 -8h-112q-8 0 -8 8v16q0 8 8 8h37l140 405q4 11 15 11h16q11 0 15 -11l140 -405h37zM150 160h148l-74 214z" />
    <glyph glyph-name="bold" unicode="Bold" horiz-adv-x="384" 
d="M306 214q32 -14 55 -48.5t23 -69.5q0 -53 -37.5 -90.5t-90.5 -37.5h-216q-8 0 -8 8v16q0 8 8 8h24v384h-24q-8 0 -8 8v16q0 8 8 8h200q46 0 79 -33t33 -79q0 -56 -46 -90zM96 384v-160h144q33 0 56.5 23.5t23.5 56.5t-23.5 56.5t-56.5 23.5h-144zM256 0q40 0 68 28t28 68
t-28 68t-68 28h-160v-192h160z" />
    <glyph glyph-name="italic" unicode="Italic" horiz-adv-x="320" 
d="M320 408v-16q0 -8 -8 -8h-88l-96 -384h88q8 0 8 -8v-16q0 -8 -8 -8h-208q-8 0 -8 8v16q0 8 8 8h88l96 384h-88q-8 0 -8 8v16q0 8 8 8h208q8 0 8 -8z" />
    <glyph glyph-name="text-height" unicode="Text&#x2d;Height" horiz-adv-x="576" 
d="M560 80q11 0 15 -10t-4 -17l-80 -80q-4 -5 -11 -5t-11 5l-80 80q-8 7 -4 17t15 10h64v224h-64q-11 0 -15 10t4 17l80 80q4 5 11 5t11 -5l80 -80q8 -7 4 -17t-15 -10h-64v-224h64zM439 336h82l-41 41zM480 7l41 41h-82zM304 416q7 0 11.5 -4.5t4.5 -11.5v-72q0 -8 -8 -8
h-16q-8 0 -8 8v56h-112v-384h72q8 0 8 -8v-16q0 -8 -8 -8h-176q-8 0 -8 8v16q0 8 8 8h72v384h-112v-56q0 -8 -8 -8h-16q-8 0 -8 8v72q0 7 4.5 11.5t11.5 4.5h288z" />
    <glyph glyph-name="text-width" unicode="Text&#x2d;Width" horiz-adv-x="448" 
d="M362 155l80 -80q5 -4 5 -11t-5 -11l-80 -80q-4 -5 -11 -5v0q-7 0 -11.5 4.5t-4.5 11.5v64h-224v-64q0 -7 -4.5 -11.5t-11.5 -4.5t-11 5l-80 80q-5 4 -5 11t5 11l80 80q4 5 11 5v0q7 0 11.5 -4.5t4.5 -11.5v-64h224v64q0 7 4.5 11.5t11.5 4.5t11 -5zM79 80v25l-41 -41
l41 -41v57zM367 23l41 41l-41 41v-82zM431 416q7 0 11.5 -4.5t4.5 -11.5v-72q0 -8 -8 -8h-16q-8 0 -8 8v56h-176v-192h40q8 0 8 -8v-16q0 -8 -8 -8h-112q-8 0 -8 8v16q0 8 8 8h40v192h-176v-56q0 -8 -8 -8h-16q-8 0 -8 8v72q0 7 4.5 11.5t11.5 4.5h416z" />
    <glyph glyph-name="align-left" unicode="Align&#x2d;Left" horiz-adv-x="448" 
d="M280 400q8 0 8 -8v-16q0 -8 -8 -8h-272q-8 0 -8 8v16q0 8 8 8h272zM440 16q8 0 8 -8v-16q0 -8 -8 -8h-432q-8 0 -8 8v16q0 8 8 8h432zM280 144q8 0 8 -8v-16q0 -8 -8 -8h-272q-8 0 -8 8v16q0 8 8 8h272zM440 272q8 0 8 -8v-16q0 -8 -8 -8h-432q-8 0 -8 8v16q0 8 8 8h432z
" />
    <glyph glyph-name="align-center" unicode="Align&#x2d;Center" horiz-adv-x="448" 
d="M344 400q8 0 8 -8v-16q0 -8 -8 -8h-240q-8 0 -8 8v16q0 8 8 8h240zM440 16q8 0 8 -8v-16q0 -8 -8 -8h-432q-8 0 -8 8v16q0 8 8 8h432zM344 144q8 0 8 -8v-16q0 -8 -8 -8h-240q-8 0 -8 8v16q0 8 8 8h240zM440 272q8 0 8 -8v-16q0 -8 -8 -8h-432q-8 0 -8 8v16q0 8 8 8h432z
" />
    <glyph glyph-name="align-right" unicode="Align&#x2d;Right" horiz-adv-x="448" 
d="M440 400q8 0 8 -8v-16q0 -8 -8 -8h-272q-8 0 -8 8v16q0 8 8 8h272zM440 16q8 0 8 -8v-16q0 -8 -8 -8h-432q-8 0 -8 8v16q0 8 8 8h432zM440 144q8 0 8 -8v-16q0 -8 -8 -8h-272q-8 0 -8 8v16q0 8 8 8h272zM440 272q8 0 8 -8v-16q0 -8 -8 -8h-432q-8 0 -8 8v16q0 8 8 8h432z
" />
    <glyph glyph-name="align-justify" unicode="Align&#x2d;Justify" horiz-adv-x="448" 
d="M439 400q8 0 8 -8v-16q0 -8 -8 -8h-432q-8 0 -8 8v16q0 8 8 8h432zM439 16q8 0 8 -8v-16q0 -8 -8 -8h-432q-8 0 -8 8v16q0 8 8 8h432zM439 144q8 0 8 -8v-16q0 -8 -8 -8h-432q-8 0 -8 8v16q0 8 8 8h432zM439 272q8 0 8 -8v-16q0 -8 -8 -8h-432q-8 0 -8 8v16q0 8 8 8h432z
" />
    <glyph glyph-name="list" unicode="List" 
d="M88 392q7 0 11.5 -4.5t4.5 -11.5v-48q0 -7 -4.5 -11.5t-11.5 -4.5h-48q-7 0 -11.5 4.5t-4.5 11.5v48q0 7 4.5 11.5t11.5 4.5h48zM88 232q7 0 11.5 -4.5t4.5 -11.5v-48q0 -7 -4.5 -11.5t-11.5 -4.5h-48q-7 0 -11.5 4.5t-4.5 11.5v48q0 7 4.5 11.5t11.5 4.5h48zM88 72
q7 0 11.5 -4.5t4.5 -11.5v-48q0 -7 -4.5 -11.5t-11.5 -4.5h-48q-7 0 -11.5 4.5t-4.5 11.5v48q0 7 4.5 11.5t11.5 4.5h48zM504 48q8 0 8 -8v-16q0 -8 -8 -8h-336q-8 0 -8 8v16q0 8 8 8h336zM504 368q8 0 8 -8v-16q0 -8 -8 -8h-336q-8 0 -8 8v16q0 8 8 8h336zM504 208
q8 0 8 -8v-16q0 -8 -8 -8h-336q-8 0 -8 8v16q0 8 8 8h336z" />
    <glyph glyph-name="outdent" unicode="Outdent" horiz-adv-x="448" 
d="M101 85l-96 96q-5 4 -5 11t5 11l96 96q4 5 11 5t11.5 -4.5t4.5 -11.5v-192q0 -7 -4.5 -11.5t-11.5 -4.5t-11 5zM96 249l-57 -57l57 -57v114zM440 400q8 0 8 -8v-16q0 -8 -8 -8h-432q-8 0 -8 8v16q0 8 8 8h432zM440 16q8 0 8 -8v-16q0 -8 -8 -8h-432q-8 0 -8 8v16q0 8 8 8
h432zM440 144q8 0 8 -8v-16q0 -8 -8 -8h-240q-8 0 -8 8v16q0 8 8 8h240zM440 272q8 0 8 -8v-16q0 -8 -8 -8h-240q-8 0 -8 8v16q0 8 8 8h240z" />
    <glyph glyph-name="indent" unicode="Indent" horiz-adv-x="448" 
d="M27 299l96 -96q5 -4 5 -11t-5 -11l-96 -96q-4 -5 -11 -5v0q-7 0 -11.5 4.5t-4.5 11.5v192q0 7 4.5 11.5t11.5 4.5t11 -5zM32 135l57 57l-57 57v-114zM440 400q8 0 8 -8v-16q0 -8 -8 -8h-432q-8 0 -8 8v16q0 8 8 8h432zM440 16q8 0 8 -8v-16q0 -8 -8 -8h-432q-8 0 -8 8v16
q0 8 8 8h432zM440 144q8 0 8 -8v-16q0 -8 -8 -8h-240q-8 0 -8 8v16q0 8 8 8h240zM440 272q8 0 8 -8v-16q0 -8 -8 -8h-240q-8 0 -8 8v16q0 8 8 8h240z" />
    <glyph glyph-name="video" unicode="Video" horiz-adv-x="576" 
d="M544 352q13 0 22.5 -9t9.5 -23v-256q0 -14 -9.5 -23t-22.5 -9q-10 0 -18 6l-110 70v-60q0 -20 -15 -34t-37 -14h-312q-22 0 -37 14t-15 34v288q0 20 15 34t37 14h312q22 0 37 -14t15 -34v-60l110 70q8 6 18 6zM384 48v288q0 7 -6 11.5t-14 4.5h-312q-8 0 -14 -4.5
t-6 -11.5v-288q0 -7 6 -11.5t14 -4.5h312q8 0 14 4.5t6 11.5zM544 64v256l-128 -82v-92l127 -81z" />
    <glyph glyph-name="image" unicode="Image" 
d="M464 384q20 0 34 -14t14 -34v-288q0 -20 -14 -34t-34 -14h-416q-20 0 -34 14t-14 34v288q0 20 14 34t34 14h416zM480 48v288q0 7 -4.5 11.5t-11.5 4.5h-416q-7 0 -11.5 -4.5t-4.5 -11.5v-288q0 -7 4.5 -11.5t11.5 -4.5h416q7 0 11.5 4.5t4.5 11.5zM112 216
q-23 0 -39.5 16.5t-16.5 39.5t16.5 39.5t39.5 16.5t39.5 -16.5t16.5 -39.5t-16.5 -39.5t-39.5 -16.5zM112 296q-10 0 -17 -7t-7 -17t7 -17t17 -7t17 7t7 17t-7 17t-17 7zM319 273q7 7 17 7t17 -7l88 -88q7 -7 7 -17v-92q0 -12 -12 -12h-360q-12 0 -12 12v28q0 10 7 17l88 88
q7 7 17 7t17 -7l31 -31zM416 96v69l-80 80l-112 -112l-48 48l-80 -80v-5h320z" />
    <glyph glyph-name="pencil" unicode="Pencil" 
d="M493 392q19 -19 19 -45.5t-19 -45.5l-352 -352l-114 -13q-12 -1 -20 7t-7 20l13 114l352 352q19 19 45.5 19t45.5 -19zM398 251l-83 83l-224 -224h35v-48h48v-35zM126 -21l20 20v35h-48v48h-35l-20 -20l-6 -59l30 -30zM471 324q9 9 9 22.5t-9 22.5l-38 38q-9 9 -22.5 9
t-22.5 -9l-50 -50l83 -83z" />
    <glyph glyph-name="map-marker" unicode="Map&#x2d;Marker" horiz-adv-x="384" 
d="M192 448q80 0 136 -56t56 -136q0 -17 -1.5 -29.5t-8 -29.5t-12 -28t-22.5 -37.5t-30 -44.5l-43.5 -62l-54.5 -79q-7 -10 -20 -10t-20 10l-54.5 79l-43.5 62t-30 44.5t-22.5 37.5t-12 28t-8 29.5t-1.5 29.5q0 80 56 136t136 56zM192 -26l46.5 67l37.5 53.5l27.5 39.5
t21.5 33l13 24t9 22.5t3.5 19.5t1.5 23q0 66 -47 113t-113 47t-113 -47t-47 -113q0 -13 1.5 -23t3.5 -19.5t9 -22.5l13 -24t21.5 -33l27.5 -39.5l37.5 -53.5z" />
    <glyph glyph-name="adjust" unicode="Adjust" 
d="M256 408q-89 0 -152.5 -63t-63.5 -153q0 -89 63 -152.5t153 -63.5q89 0 152.5 63t63.5 153q0 89 -63 152.5t-153 63.5zM256 440q103 0 175.5 -72.5t72.5 -175.5t-72.5 -175.5t-175.5 -72.5t-175.5 72.5t-72.5 175.5t72.5 175.5t175.5 72.5zM224 316q-41 -11 -68.5 -45
t-27.5 -79t27.5 -79t68.5 -45v248zM256 352v-320q-66 0 -113 47t-47 113t47 113t113 47z" />
    <glyph glyph-name="tint" unicode="Tint" horiz-adv-x="352" 
d="M205 426q16 -52 43 -99.5t49 -74.5t38.5 -63.5t16.5 -74.5q0 -74 -51.5 -126t-124.5 -52t-124.5 52t-51.5 126q0 38 16.5 74t39 64t49 75t42.5 99q6 22 29 22t29 -22zM176 -32q60 0 102 43t42 103q0 23 -8 46t-17 37.5t-29.5 43.5t-32 47t-29 53t-28.5 71
q-11 -36 -28.5 -71t-29 -53l-31.5 -47t-29.5 -44t-17.5 -37.5t-8 -45.5q0 -60 42 -103t102 -43zM176 32q7 0 11.5 -4.5t4.5 -11.5t-4.5 -11.5t-11.5 -4.5q-46 0 -79 33t-33 79q0 7 4.5 11.5t11.5 4.5t11.5 -4.5t4.5 -11.5q0 -33 23.5 -56.5t56.5 -23.5z" />
    <glyph glyph-name="edit" unicode="Edit" horiz-adv-x="576" 
d="M418 132l20 20q3 3 6.5 1.5t3.5 -5.5v-164q0 -20 -14 -34t-34 -14h-352q-20 0 -34 14t-14 34v352q0 20 14 34t34 14h292q4 0 5.5 -3.5t-1.5 -6.5l-20 -20q-1 -2 -4 -2h-272q-7 0 -11.5 -4.5t-4.5 -11.5v-352q0 -7 4.5 -11.5t11.5 -4.5h352q7 0 11.5 4.5t4.5 11.5v144
q0 3 2 4zM564 324l-313 -313l-100 -11q-10 -1 -17 6t-6 17l11 100l313 313q12 12 29.5 12t29.5 -12l53 -53q12 -12 12 -29.5t-12 -29.5zM470 275l-67 67l-233 -234l-8 -75l75 9zM541 360l-53 53q-7 7 -14 0l-48 -48l67 -67l48 48q7 7 0 14z" />
    <glyph glyph-name="arrows" unicode="Arrows" 
d="M338 13l-74 -73q-8 -9 -16 0l-74 73q-8 9 0 17l7 7q9 9 17 0l41 -41h1v180h-180v-1l41 -41q9 -8 0 -17l-7 -7q-8 -8 -17 0l-73 74q-9 8 0 16l73 74q9 8 17 0l7 -7q9 -9 0 -17l-41 -41v-1h180v180h-1l-41 -41q-8 -9 -17 0l-7 7q-8 8 0 17l74 73q8 9 16 0l74 -73
q8 -9 0 -17l-7 -7q-9 -9 -17 0l-41 41h-1v-180h180v1l-41 41q-9 8 0 17l7 7q8 8 17 0l73 -74q9 -8 0 -16l-73 -74q-9 -8 -17 0l-7 7q-9 9 0 17l41 41v1h-180v-180h1l41 41q8 9 17 0l7 -7q8 -8 0 -17z" />
    <glyph glyph-name="step-backward" unicode="Step&#x2d;Backward" horiz-adv-x="448" 
d="M76 -31q-12 0 -12 12v424q0 12 12 12h8q12 0 12 -12v-191q2 2 4 3l232 193q15 13 33.5 4t18.5 -29v-384q0 -20 -18.5 -28.5t-33.5 3.5l-232 192q-2 1 -4 3v-190q0 -12 -12 -12h-8zM116 192l236 -191v0v384v0z" />
    <glyph glyph-name="fast-backward" unicode="Fast&#x2d;Backward" 
d="M12 1q-12 0 -12 12v360q0 12 12 12h8q12 0 12 -12v-159l3 3l201 161q15 12 33.5 3.5t18.5 -28.5v-119l172 144q15 13 33.5 4t18.5 -29v-320q0 -20 -18.5 -29t-33.5 4l-172 143v-118q0 -20 -18.5 -29t-33.5 4l-201 160l-3 3v-158q0 -12 -12 -12h-8zM292 192h1l187 -159
v320l-187 -160v-1h-1zM61 193v-1l195 -159v0v320v0z" />
    <glyph glyph-name="backward" unicode="Backward" 
d="M268 167q-12 9 -12 24t12 25l192 161q15 13 33.5 4t18.5 -29v-320q0 -20 -18.5 -28.5t-33.5 4.5zM288 191l192 -159v320zM12 167q-12 9 -12 24t12 25l192 161q15 13 33.5 4t18.5 -29v-320q0 -20 -18.5 -28.5t-33.5 4.5zM32 191l192 -159v320z" />
    <glyph glyph-name="play" unicode="Play" horiz-adv-x="448" 
d="M424 233q24 -14 24 -41t-24 -41l-352 -208q-23 -14 -47.5 -0.5t-24.5 41.5v416q0 30 25.5 42.5t46.5 -1.5zM408 178q8 5 8 14t-8 14l-352 208q-6 4 -15 0.5t-9 -14.5v-416q0 -9 8 -13.5t16 -0.5z" />
    <glyph glyph-name="pause" unicode="Pause" horiz-adv-x="448" 
d="M48 -31q-20 0 -34 14t-14 34v352q0 20 14 34t34 14h96q20 0 34 -14t14 -34v-352q0 -20 -14 -34t-34 -14h-96zM32 369v-352q0 -7 4.5 -11.5t11.5 -4.5h96q7 0 11.5 4.5t4.5 11.5v352q0 7 -4.5 11.5t-11.5 4.5h-96q-7 0 -11.5 -4.5t-4.5 -11.5zM304 -31q-20 0 -34 14
t-14 34v352q0 20 14 34t34 14h96q20 0 34 -14t14 -34v-352q0 -20 -14 -34t-34 -14h-96zM288 369v-352q0 -7 4.5 -11.5t11.5 -4.5h96q7 0 11.5 4.5t4.5 11.5v352q0 7 -4.5 11.5t-11.5 4.5h-96q-7 0 -11.5 -4.5t-4.5 -11.5z" />
    <glyph glyph-name="stop" unicode="Stop" horiz-adv-x="448" 
d="M400 416q20 0 34 -14t14 -34v-352q0 -20 -14 -34t-34 -14h-352q-20 0 -34 14t-14 34v352q0 20 14 34t34 14h352zM416 16v352q0 7 -4.5 11.5t-11.5 4.5h-352q-7 0 -11.5 -4.5t-4.5 -11.5v-352q0 -7 4.5 -11.5t11.5 -4.5h352q7 0 11.5 4.5t4.5 11.5z" />
    <glyph glyph-name="forward" unicode="Forward" 
d="M244 217q12 -9 12 -24t-12 -25l-192 -161q-15 -13 -33.5 -4t-18.5 29v320q0 20 18.5 29t33.5 -4zM224 193l-192 159v-320zM500 217q12 -9 12 -24t-12 -25l-192 -161q-15 -13 -33.5 -4t-18.5 29v320q0 20 18.5 28.5t33.5 -4.5zM480 193l-192 159v-320z" />
    <glyph glyph-name="fast-forward" unicode="Fast&#x2d;Forward" 
d="M500 385q12 0 12 -12v-360q0 -12 -12 -12h-8q-12 0 -12 12v159l-3 -3l-201 -161q-15 -13 -33.5 -4t-18.5 29v119l-172 -144q-15 -13 -33.5 -4t-18.5 29v320q0 20 18.5 29t33.5 -4l172 -143v118q0 20 18.5 29t33.5 -4l201 -160l3 -3v158q0 12 12 12h8zM220 194h-1
l-187 159v-320l187 160v1h1zM451 193v1l-195 159v0v-320v0z" />
    <glyph glyph-name="step-forward" unicode="Step&#x2d;Forward" horiz-adv-x="448" 
d="M372 417q12 0 12 -12v-424q0 -12 -12 -12h-8q-12 0 -12 12v191q-2 -2 -4 -3l-232 -193q-15 -13 -33.5 -4t-18.5 29v384q0 20 18.5 28.5t33.5 -3.5l232 -192q2 -1 4 -3v190q0 12 12 12h8zM332 194l-236 191v0v-384v0z" />
    <glyph glyph-name="eject" unicode="Eject" horiz-adv-x="448" 
d="M435 208q21 -23 8.5 -51.5t-43.5 -28.5h-352q-31 0 -43.5 28.5t8.5 51.5l176 192q14 16 35 16t35 -16zM400 160q10 0 14.5 9.5t-2.5 17.5l-176 192q-5 5 -12 5t-12 -5l-176 -192q-7 -8 -2.5 -17.5t14.5 -9.5h352zM448 48v-32q0 -20 -14 -34t-34 -14h-352q-20 0 -34 14
t-14 34v32q0 20 14 34t34 14h352q20 0 34 -14t14 -34zM400 64h-352q-7 0 -11.5 -4.5t-4.5 -11.5v-32q0 -7 4.5 -11.5t11.5 -4.5h352q7 0 11.5 4.5t4.5 11.5v32q0 7 -4.5 11.5t-11.5 4.5z" />
    <glyph glyph-name="chevron-left" unicode="Chevron&#x2d;Left" horiz-adv-x="256" 
d="M238 -28q-8 -8 -16 0l-212 212q-8 8 0 16l212 212q8 8 16 0l8 -8q8 -8 0 -17l-196 -195l196 -195q8 -9 0 -17z" />
    <glyph glyph-name="chevron-right" unicode="Chevron&#x2d;Right" horiz-adv-x="256" 
d="M18 412q8 8 16 0l212 -212q8 -8 0 -16l-212 -212q-8 -8 -16 0l-8 8q-8 8 0 17l196 195l-196 195q-8 9 0 17z" />
    <glyph glyph-name="plus-circle" unicode="Plus&#x2d;Circle" 
d="M384 198v-12q0 -12 -12 -12h-98v-98q0 -12 -12 -12h-12q-12 0 -12 12v98h-98q-12 0 -12 12v12q0 12 12 12h98v98q0 12 12 12h12q12 0 12 -12v-98h98q12 0 12 -12zM504 192q0 -103 -72.5 -175.5t-175.5 -72.5t-175.5 72.5t-72.5 175.5t72.5 175.5t175.5 72.5t175.5 -72.5
t72.5 -175.5zM472 192q0 90 -63.5 153t-152.5 63q-90 0 -153 -63.5t-63 -152.5q0 -90 63.5 -153t152.5 -63q90 0 153 63.5t63 152.5z" />
    <glyph glyph-name="minus-circle" unicode="Minus&#x2d;Circle" 
d="M140 174q-12 0 -12 12v12q0 12 12 12h232q12 0 12 -12v-12q0 -12 -12 -12h-232zM504 192q0 -103 -72.5 -175.5t-175.5 -72.5t-175.5 72.5t-72.5 175.5t72.5 175.5t175.5 72.5t175.5 -72.5t72.5 -175.5zM472 192q0 90 -63.5 153t-152.5 63q-90 0 -153 -63.5t-63 -152.5
q0 -90 63.5 -153t152.5 -63q90 0 153 63.5t63 152.5z" />
    <glyph glyph-name="times-circle" unicode="Times&#x2d;Circle" 
d="M256 440q103 0 175.5 -72.5t72.5 -175.5t-72.5 -175.5t-175.5 -72.5t-175.5 72.5t-72.5 175.5t72.5 175.5t175.5 72.5zM256 -24q90 0 153 63.5t63 152.5q0 90 -63.5 153t-152.5 63q-90 0 -153 -63.5t-63 -152.5q0 -90 63.5 -153t152.5 -63zM351 261l-69 -69l69 -69
q8 -9 0 -17l-9 -9q-8 -8 -17 0l-69 69l-69 -69q-9 -8 -17 0l-9 9q-8 8 0 17l69 69l-69 69q-8 9 0 17l9 9q8 8 17 0l69 -69l69 69q9 8 17 0l9 -9q8 -8 0 -17z" />
    <glyph glyph-name="check-circle" unicode="Check&#x2d;Circle" 
d="M256 440q103 0 175.5 -72.5t72.5 -175.5t-72.5 -175.5t-175.5 -72.5t-175.5 72.5t-72.5 175.5t72.5 175.5t175.5 72.5zM256 -24q90 0 153 63.5t63 152.5q0 90 -63.5 153t-152.5 63q-90 0 -153 -63.5t-63 -152.5q0 -90 63.5 -153t152.5 -63zM398 251l-181 -179
q-8 -9 -17 0l-86 87q-8 8 0 17l9 8q8 8 17 0l69 -70l163 163q9 8 17 -1l9 -8q8 -9 0 -17z" />
    <glyph glyph-name="question-circle" unicode="Question&#x2d;Circle" 
d="M256 108q12 0 20 -8t8 -20t-8 -20t-20 -8t-20 8t-8 20t8 20t20 8zM264 132h-16q-5 0 -8.5 3.5t-3.5 8.5q0 24 12 40.5t26.5 23.5t26.5 18t12 26q0 16 -14.5 28t-42.5 12q-37 0 -60 -29q-6 -9 -16 -2l-13 9q-10 7 -3 17q35 45 92 45q41 0 69 -22t28 -58q0 -23 -12 -39.5
t-26.5 -23.5t-26.5 -18.5t-12 -26.5q0 -5 -3.5 -8.5t-8.5 -3.5zM256 408q-90 0 -153 -63.5t-63 -152.5q0 -90 63.5 -153t152.5 -63q90 0 153 63.5t63 152.5q0 90 -63.5 153t-152.5 63zM256 440q103 0 175.5 -72.5t72.5 -175.5t-72.5 -175.5t-175.5 -72.5t-175.5 72.5
t-72.5 175.5t72.5 175.5t175.5 72.5z" />
    <glyph glyph-name="info-circle" unicode="Info&#x2d;Circle" 
d="M256 408q-90 0 -153 -63.5t-63 -152.5q0 -90 63.5 -153t152.5 -63q90 0 153 63.5t63 152.5q0 90 -63.5 153t-152.5 63zM256 440q103 0 175.5 -72.5t72.5 -175.5t-72.5 -175.5t-175.5 -72.5t-175.5 72.5t-72.5 175.5t72.5 175.5t175.5 72.5zM220 96h12v120h-12
q-12 0 -12 12v8q0 12 12 12h48q12 0 12 -12v-140h12q12 0 12 -12v-8q0 -12 -12 -12h-72q-12 0 -12 12v8q0 12 12 12zM256 336q13 0 22.5 -9.5t9.5 -22.5t-9.5 -22.5t-22.5 -9.5t-22.5 9.5t-9.5 22.5t9.5 22.5t22.5 9.5z" />
    <glyph glyph-name="crosshairs" unicode="Crosshairs" 
d="M506 208q6 0 6 -6v-20q0 -6 -6 -6h-35q-5 -80 -62 -137t-137 -62v-35q0 -6 -6 -6h-20q-6 0 -6 6v35q-80 5 -137 62t-62 137h-35q-6 0 -6 6v20q0 6 6 6h35q5 80 62 137t137 62v35q0 6 6 6h20q6 0 6 -6v-35q80 -5 137 -62t62 -137h35zM272 9q67 5 114.5 52.5t52.5 114.5
h-65q-6 0 -6 6v20q0 6 6 6h65q-5 67 -52.5 114.5t-114.5 52.5v-65q0 -6 -6 -6h-20q-6 0 -6 6v65q-67 -5 -114.5 -52.5t-52.5 -114.5h65q6 0 6 -6v-20q0 -6 -6 -6h-65q5 -67 52.5 -114.5t114.5 -52.5v65q0 6 6 6h20q6 0 6 -6v-65zM280 192q0 -10 -7 -17t-17 -7t-17 7t-7 17
t7 17t17 7t17 -7t7 -17z" />
    <glyph glyph-name="ban" unicode="Ban" 
d="M256 440q103 0 175.5 -72.5t72.5 -175.5t-72.5 -175.5t-175.5 -72.5t-175.5 72.5t-72.5 175.5t72.5 175.5t175.5 72.5zM103.5 39.5q60.5 -60.5 145.5 -63.5t148 52l-305 305q-55 -63 -52 -148t63.5 -145.5zM420 51q55 63 52 148t-63.5 145.5t-145.5 63.5t-148 -52z" />
    <glyph glyph-name="arrow-left" unicode="Arrow&#x2d;Left" horiz-adv-x="448" 
d="M232 -28q-9 -8 -17 0l-211 212q-9 8 0 16l211 212q8 8 17 0l7 -8q8 -8 0 -17l-179 -178h376q12 0 12 -12v-10q0 -12 -12 -12h-376l179 -178q8 -9 0 -17z" />
    <glyph glyph-name="arrow-right" unicode="Arrow&#x2d;Right" horiz-adv-x="448" 
d="M216 412q9 8 17 0l211 -212q9 -8 0 -16l-211 -212q-8 -8 -17 0l-7 8q-8 8 0 17l179 178h-376q-12 0 -12 12v10q0 12 12 12h376l-179 178q-8 9 0 17z" />
    <glyph glyph-name="arrow-up" unicode="Arrow&#x2d;Up" horiz-adv-x="448" 
d="M4 184q-8 9 0 17l212 211q8 9 16 0l212 -211q8 -8 0 -17l-8 -7q-8 -8 -17 0l-178 179v-376q0 -12 -12 -12h-10q-12 0 -12 12v376l-178 -179q-9 -8 -17 0z" />
    <glyph glyph-name="arrow-down" unicode="Arrow&#x2d;Down" horiz-adv-x="448" 
d="M444 200q8 -9 -1 -18l-211 -211q-8 -8 -17 0l-211 211q-8 9 0 18l8 7q8 8 16 0l179 -179v376q0 12 12 12h10q12 0 12 -12v-376l178 179q9 8 17 0z" />
    <glyph glyph-name="share" unicode="Share" horiz-adv-x="576" 
d="M565 252q11 -12 11 -28t-11 -28l-176 -184q-19 -19 -44 -9t-25 37v88q-43 -1 -70.5 -3t-53.5 -7.5t-39 -15.5t-21.5 -26.5t-7.5 -41t11 -57.5q6 -22 -13 -35t-37 0q-35 26 -62 69t-27 106q0 49 18 86t46.5 58.5t72 35t86 18t97.5 5.5v88q0 27 25 37t44 -9zM542 218
q2 3 2 6t-2 6l-176 184q-4 3 -9 1t-5 -7v-120q-39 0 -67.5 -1t-64 -5t-60.5 -11t-51 -19.5t-41.5 -30.5t-25.5 -44.5t-10 -59.5q0 -93 76 -149q-11 39 -11 68.5t6.5 49.5t25.5 34t38.5 22t53 12t61 5t70.5 1v-120q0 -5 5 -7t9 1z" />
    <glyph glyph-name="expand" unicode="Expand" horiz-adv-x="448" 
d="M0 268v124q0 10 7 17t17 7h124q12 0 12 -12v-8q0 -12 -12 -12h-116v-116q0 -12 -12 -12h-8q-12 0 -12 12zM300 416h124q10 0 17 -7t7 -17v-124q0 -12 -12 -12h-8q-12 0 -12 12v116h-116q-12 0 -12 12v8q0 12 12 12zM448 116v-124q0 -10 -7 -17t-17 -7h-124q-12 0 -12 12
v8q0 12 12 12h116v116q0 12 12 12h8q12 0 12 -12zM148 -32h-124q-10 0 -17 7t-7 17v124q0 12 12 12h8q12 0 12 -12v-116h116q12 0 12 -12v-8q0 -12 -12 -12z" />
    <glyph glyph-name="compress" unicode="Compress" horiz-adv-x="448" 
d="M436 256h-124q-10 0 -17 7t-7 17v124q0 12 12 12h8q12 0 12 -12v-116h116q12 0 12 -12v-8q0 -12 -12 -12zM160 280q0 -10 -7 -17t-17 -7h-124q-12 0 -12 12v8q0 12 12 12h116v116q0 12 12 12h8q12 0 12 -12v-124zM160 -20q0 -12 -12 -12h-8q-12 0 -12 12v116h-116
q-12 0 -12 12v8q0 12 12 12h124q10 0 17 -7t7 -17v-124zM320 -20q0 -12 -12 -12h-8q-12 0 -12 12v124q0 10 7 17t17 7h124q12 0 12 -12v-8q0 -12 -12 -12h-116v-116z" />
    <glyph glyph-name="plus" unicode="Plus" horiz-adv-x="384" 
d="M376 216q8 0 8 -8v-32q0 -8 -8 -8h-160v-160q0 -8 -8 -8h-32q-8 0 -8 8v160h-160q-8 0 -8 8v32q0 8 8 8h160v160q0 8 8 8h32q8 0 8 -8v-160h160z" />
    <glyph glyph-name="minus" unicode="Minus" horiz-adv-x="384" 
d="M376 216q8 0 8 -8v-32q0 -8 -8 -8h-368q-8 0 -8 8v32q0 8 8 8h368z" />
    <glyph glyph-name="asterisk" unicode="Asterisk" 
d="M475 84q11 -6 5 -17l-4 -6q-6 -11 -17 -5l-187 108v-216q0 -12 -12 -12h-8q-12 0 -12 12v216l-187 -108q-11 -6 -17 5l-4 6q-6 11 5 17l187 108l-187 108q-11 6 -5 17l4 6q6 11 17 5l187 -108v216q0 12 12 12h8q12 0 12 -12v-216l187 108q11 6 17 -5l4 -6q6 -11 -5 -17
l-187 -108z" />
    <glyph glyph-name="exclamation-circle" unicode="Exclamation&#x2d;Circle" 
d="M256 408q-90 0 -153 -63.5t-63 -152.5q0 -90 63.5 -153t152.5 -63q90 0 153 63.5t63 152.5q0 90 -63.5 153t-152.5 63zM256 440q103 0 175.5 -72.5t72.5 -175.5t-72.5 -175.5t-175.5 -72.5t-175.5 72.5t-72.5 175.5t72.5 175.5t175.5 72.5zM245 320h22q6 0 9.5 -3.5
t2.5 -8.5l-7 -168q0 -12 -12 -12h-8q-12 0 -12 12l-7 168q-1 5 2.5 8.5t9.5 3.5zM256 108q12 0 20 -8t8 -20t-8 -20t-20 -8t-20 8t-8 20t8 20t20 8z" />
    <glyph glyph-name="gift" unicode="Gift" 
d="M464 304q20 0 34 -14t14 -34v-96q0 -7 -4.5 -11.5t-11.5 -4.5h-16v-144q0 -20 -14 -34t-34 -14h-352q-20 0 -34 14t-14 34v144h-16q-7 0 -11.5 4.5t-4.5 11.5v96q0 20 14 34t34 14h39q-15 22 -15 48q0 33 22 56.5t52 23.5q31 0 54 -20.5t56 -75.5q33 55 56 75.5t54 20.5
q30 0 52 -23.5t22 -56.5q0 -26 -15 -48h39zM276 308l-2 -4h92q17 0 29.5 14t12.5 34t-12.5 34t-29.5 14q-20 0 -37.5 -17t-52.5 -75zM146 400q-17 0 -29.5 -14t-12.5 -34t12.5 -34t29.5 -14h92l-2 4q-35 58 -52.5 75t-37.5 17zM192 -16v160h-128v-144q0 -7 4.5 -11.5
t11.5 -4.5h112zM192 176v96h-144q-7 0 -11.5 -4.5t-4.5 -11.5v-80h160zM288 -16v288h-64v-288h64zM448 0v144h-128v-160h112q7 0 11.5 4.5t4.5 11.5zM480 176v80q0 7 -4.5 11.5t-11.5 4.5h-144v-96h160z" />
    <glyph glyph-name="leaf" unicode="Leaf" horiz-adv-x="576" 
d="M546 438q30 -66 30 -144q0 -131 -75.5 -223.5t-192.5 -101.5q-10 -1 -20 -1q-54 0 -99.5 27.5t-69.5 73.5q-29 -25 -51 -57t-28.5 -45.5t-8.5 -20t-8 -9t-12.5 -0.5t-9 8t-0.5 12q4 11 10.5 24.5t33.5 51.5t61 67q-10 29 -10 60q0 80 56 136t136 56h80q47 0 86.5 23.5
t63.5 64.5q5 8 14 8q10 0 14 -10zM305 1q104 7 171.5 90t67.5 203q0 53 -16 103q-29 -37 -71 -57t-89 -20h-80q-66 0 -113 -47t-47 -113q0 -18 5 -38q100 70 235 70q7 0 11.5 -4.5t4.5 -11.5t-4.5 -11.5t-11.5 -4.5q-130 0 -224 -69q20 -41 58.5 -66t85.5 -25q8 0 17 1z" />
    <glyph glyph-name="fire" unicode="Fire" horiz-adv-x="384" 
d="M216 424q0 -28 17.5 -53.5t42 -47t49 -46.5t42 -63.5t17.5 -85.5q0 -79 -56.5 -135.5t-135.5 -56.5t-135.5 56.5t-56.5 135.5q0 47 22 89t60 69q12 8 25 1t13 -21v-106q0 -17 11.5 -28.5t28.5 -11.5t28.5 11.5t11.5 28.5q0 12 -12 33l-25 44t-22.5 52t-2.5 68t34 80
q10 15 27 10t17 -23zM192 -32q66 0 113 47t47 113q0 40 -15 72.5t-37.5 55t-45.5 43t-42.5 48.5t-24.5 61q-19 -34 -21 -65t8 -56t23 -46t24 -42.5t11 -38.5q0 -30 -21 -51t-51 -21t-51 21t-21 51v96q-26 -22 -41 -57t-15 -71q0 -66 47 -113t113 -47z" />
    <glyph glyph-name="eye" unicode="Eye" horiz-adv-x="576" 
d="M288 160q-26 0 -45 19t-19 45v1v2q8 -3 17 -3q19 0 33 14t14 33q0 9 -3 17h1.5h1.5q26 0 45 -19t19 -45t-19 -45t-45 -19zM573 207q3 -7 3 -15t-3 -15q-42 -80 -118 -128.5t-167 -48.5t-167 48.5t-118 128.5q-3 7 -3 15t3 15q42 80 118 128.5t167 48.5t167 -48.5
t118 -128.5zM288 352q-53 0 -90.5 -37.5t-37.5 -90.5t37.5 -90.5t90.5 -37.5t90.5 37.5t37.5 90.5t-37.5 90.5t-90.5 37.5zM288 32q81 0 149.5 43t106.5 117q-18 36 -56 73.5t-74 55.5q34 -43 34 -97q0 -66 -47 -113t-113 -47t-113 47t-47 113q0 54 34 97q-36 -18 -74 -55.5
t-56 -73.5q38 -74 106.5 -117t149.5 -43z" />
    <glyph glyph-name="eye-slash" unicode="Eye&#x2d;Slash" horiz-adv-x="640" 
d="M637 -37q3 -3 3 -6t-2 -5l-10 -13q-2 -3 -6 -3q-3 0 -5 2l-614 483q-3 3 -3 6t2 5l10 13q2 3 6 3q3 0 5 -2zM320 352q-48 0 -84 -32l-46 36q25 11 63.5 19.5t66.5 8.5q91 0 167 -48.5t118 -128.5q3 -7 3 -15t-3 -15q-27 -51 -71 -92l-26 20q18 15 37.5 40.5t30.5 46.5
q-18 36 -56 73.5t-74 55.5q34 -43 34 -97q0 -42 -22 -80l-25 20q15 29 15 60q0 53 -37.5 90.5t-90.5 37.5zM381 205l-64 51q3 7 3 16q0 8 -3 16h1.5h1h1.5q26 0 44.5 -18.5t18.5 -44.5q0 -10 -3 -20zM163 254l30 -23q0 -1 -0.5 -3.5t-0.5 -3.5q0 -53 37.5 -90.5t90.5 -37.5
q17 0 37 6l29 -23q-32 -15 -67 -15q-66 0 -112.5 46.5t-46.5 112.5v1q0 15 3 30zM320 32q50 0 101 19l29 -23q-25 -11 -63.5 -19.5t-66.5 -8.5q-91 0 -167 48.5t-117 128.5q-4 7 -4 15t4 15q26 51 70 92l26 -20q-43 -39 -68 -87q38 -74 106.5 -117t149.5 -43z" />
    <glyph glyph-name="exclamation-triangle" unicode="Exclamation&#x2d;Triangle" horiz-adv-x="576" 
d="M270 288h36q6 0 6 -6l-8 -196q0 -6 -6 -6h-20q-6 0 -6 6l-8 196q0 6 6 6zM288 60q12 0 20 -8t8 -20t-8 -20t-20 -8t-20 8t-8 20t8 20t20 8zM570 8q13 -24 -0.5 -48t-41.5 -24h-480q-28 0 -41.5 24t-0.5 48l240 416q14 24 42 24t42 -24zM528 -32q9 0 13.5 8t0.5 16
l-240 416q-5 8 -14 8t-14 -8l-240 -416q-4 -8 0.5 -16t13.5 -8h480z" />
    <glyph glyph-name="plane" unicode="Plane" horiz-adv-x="576" 
d="M480 256q30 0 63 -19.5t33 -44.5t-33 -44.5t-63 -19.5h-114l-105 -184q-5 -8 -14 -8h-89q-8 0 -12.5 6.5t-2.5 13.5l49 172h-64l-43 -58q-5 -6 -13 -6h-56q-8 0 -12.5 6t-3.5 14l32 108l-32 108q-1 8 3.5 14t12.5 6h56q8 0 13 -6l43 -58h64l-49 172q-2 7 2.5 13.5
t12.5 6.5h89q9 0 14 -8l105 -184h114zM480 160q19 0 41 12t23 20q-1 8 -23 20t-41 12h-133l-110 192h-57l54 -192h-122l-48 64h-27l28 -96l-28 -96h27l48 64h122l-54 -192h57l110 192h133z" />
    <glyph glyph-name="calendar-alt" unicode="Calendar&#x2d;Alt" horiz-adv-x="448" 
d="M400 384q20 0 34 -14t14 -34v-352q0 -20 -14 -34t-34 -14h-352q-20 0 -34 14t-14 34v352q0 20 14 34t34 14h48v52q0 12 12 12h8q12 0 12 -12v-52h192v52q0 12 12 12h8q12 0 12 -12v-52h48zM48 352q-7 0 -11.5 -4.5t-4.5 -11.5v-48h384v48q0 7 -4.5 11.5t-11.5 4.5h-352z
M400 -32q7 0 11.5 4.5t4.5 11.5v272h-384v-272q0 -7 4.5 -11.5t11.5 -4.5h352zM148 128h-40q-12 0 -12 12v40q0 12 12 12h40q12 0 12 -12v-40q0 -12 -12 -12zM244 128h-40q-12 0 -12 12v40q0 12 12 12h40q12 0 12 -12v-40q0 -12 -12 -12zM340 128h-40q-12 0 -12 12v40
q0 12 12 12h40q12 0 12 -12v-40q0 -12 -12 -12zM244 32h-40q-12 0 -12 12v40q0 12 12 12h40q12 0 12 -12v-40q0 -12 -12 -12zM148 32h-40q-12 0 -12 12v40q0 12 12 12h40q12 0 12 -12v-40q0 -12 -12 -12zM340 32h-40q-12 0 -12 12v40q0 12 12 12h40q12 0 12 -12v-40
q0 -12 -12 -12z" />
    <glyph glyph-name="random" unicode="Random" 
d="M0 320v8q0 12 12 12h106q5 0 9 -4l89 -97l-22 -23l-85 92h-97q-12 0 -12 12zM503 41l-64 -64q-15 -15 -35 -6.5t-20 29.5v44h-26q-5 0 -8 4l-90 97l22 23l85 -92h17v52q0 21 20 29.5t35 -6.5l64 -64q9 -10 9 -23t-9 -23zM483 67l-64 64q-2 2 -4.5 1t-2.5 -4v-128
q0 -3 2.5 -4t4.5 1l64 64q3 3 0 6zM503 297l-64 -64q-15 -15 -35 -6.5t-20 29.5v52h-17l-240 -260q-4 -4 -9 -4h-106q-12 0 -12 12v8q0 12 12 12h97l240 260q4 4 9 4h26v44q0 21 20 29.5t35 -6.5l64 -64q9 -10 9 -23t-9 -23zM483 323l-64 64q-2 2 -4.5 1t-2.5 -4v-128
q0 -3 2.5 -4t4.5 1l64 64q3 3 0 6z" />
    <glyph glyph-name="comment" unicode="Comment" 
d="M256 384q-93 0 -158.5 -51.5t-65.5 -124.5q0 -58 44 -104l14 -15l-7 -19q-13 -34 -41 -69q54 5 103 39l13 10l15 -5q40 -13 83 -13q93 0 158.5 51.5t65.5 124.5t-65.5 124.5t-158.5 51.5zM256 416q106 0 181 -61t75 -147t-75 -147t-181 -61q-47 0 -93 14
q-65 -46 -139 -46q-16 0 -22 14.5t4 25.5q2 2 9.5 10.5t19 27t18.5 36.5q-53 56 -53 126q0 86 75 147t181 61z" />
    <glyph glyph-name="magnet" unicode="Magnet" 
d="M372 416h104q15 0 25.5 -10.5t10.5 -25.5v-189q0 -72 -39 -130t-97 -87.5t-119.5 -29.5t-119.5 29.5t-97.5 87.5t-39.5 130q1 20 1 65h-1v32h1q0 46 -1 92q0 15 10.5 25.5t25.5 10.5h104q15 0 25.5 -10.5t10.5 -25.5v-172q0 -45 24 -70.5t56.5 -25.5t56 25.5t23.5 70.5
v172q0 15 10.5 25.5t25.5 10.5zM36 380q1 -63 1 -92h103v92h-104zM476 190q-1 21 -1 66h-103v-48q0 -60 -35 -97q-16 -17 -37 -26t-44 -9t-43 9q-22 9 -38 26q-35 37 -35 97v48h-103q0 -45 -1 -66q0 -46 19 -86q19 -37 52 -66q32 -28 71 -43q40 -15 79 -15t78 15t71 43
q33 29 51 66q19 40 19 86zM372 288h103q0 43 1 92h-104v-92z" />
    <glyph glyph-name="chevron-up" unicode="Chevron&#x2d;Up" horiz-adv-x="448" 
d="M4 82q-8 8 0 16l212 212q8 8 16 0l212 -212q8 -8 0 -16l-8 -8q-8 -8 -17 0l-195 196l-195 -196q-9 -8 -17 0z" />
    <glyph glyph-name="chevron-down" unicode="Chevron&#x2d;Down" horiz-adv-x="448" 
d="M444 285q8 -8 -1 -17l-211 -211q-8 -8 -17 0l-211 211q-8 9 0 17l8 7q8 9 16 0l196 -195l195 195q9 9 17 0z" />
    <glyph glyph-name="retweet" unicode="Retweet" horiz-adv-x="640" 
d="M635 84l-99 -98q-8 -9 -16 0l-99 98q-8 9 0 17l6 6q8 8 17 0l68 -68v281h-252q-5 0 -8 4l-8 8q-6 5 -3 12.5t11 7.5h268q10 0 17 -7t7 -17v-289l68 68q9 8 17 0l6 -6q8 -8 0 -17zM388 60l8 -8q6 -5 3 -12.5t-11 -7.5h-268q-10 0 -17 7t-7 17v289l-68 -68q-9 -8 -17 0
l-6 6q-8 8 0 17l99 98q8 9 16 0l99 -98q8 -9 0 -17l-6 -6q-8 -8 -17 0l-68 68v-281h252q5 0 8 -4z" />
    <glyph glyph-name="shopping-cart" unicode="Shopping&#x2d;Cart" horiz-adv-x="576" 
d="M552 384q11 0 18.5 -9t4.5 -20l-43 -208q-2 -8 -8.5 -13.5t-14.5 -5.5h-332l12 -64h296q19 0 24 -18q19 -19 19 -46t-18.5 -45.5t-45.5 -18.5t-45.5 18.5t-18.5 45.5q0 17 9 32h-146q9 -15 9 -32q0 -27 -18.5 -45.5t-45.5 -18.5t-45.5 18.5t-18.5 45.5q0 25 17 43
l-70 373h-79q-12 0 -12 12v8q0 12 12 12h85q9 0 15.5 -5.5t8.5 -14.5l8 -44h423zM240 0q0 13 -9.5 22.5t-22.5 9.5t-22.5 -9.5t-9.5 -22.5t9.5 -22.5t22.5 -9.5t22.5 9.5t9.5 22.5zM464 -32q13 0 22.5 9.5t9.5 22.5t-9.5 22.5t-22.5 9.5t-22.5 -9.5t-9.5 -22.5t9.5 -22.5
t22.5 -9.5zM502 160l40 192h-407l36 -192h331z" />
    <glyph glyph-name="folder" unicode="Folder" 
d="M195 352h-147q-7 0 -11.5 -4.5t-4.5 -11.5v-288q0 -7 4.5 -11.5t11.5 -4.5h416q7 0 11.5 4.5t4.5 11.5v224q0 7 -4.5 11.5t-11.5 4.5h-192q-13 0 -23 9zM48 384h147q13 0 22 -9l55 -55h192q20 0 34 -14t14 -34v-224q0 -20 -14 -34t-34 -14h-416q-20 0 -34 14t-14 34v288
q0 20 14 34t34 14z" />
    <glyph glyph-name="folder-open" unicode="Folder&#x2d;Open" horiz-adv-x="576" 
d="M528 224q28 0 41.5 -24.5t-0.5 -48.5l-67 -112q-24 -39 -69 -39h-385q-20 0 -34 14t-14 34v288q0 20 14 34t34 14h160l64 -64h160q20 0 34 -14t14 -34v-48h48zM48 352q-7 0 -11.5 -4.5t-4.5 -11.5v-268l71 117q23 39 68 39h277v48q0 7 -4.5 11.5t-11.5 4.5h-173l-64 64
h-147zM542 168q4 8 -0.5 16t-13.5 8h-360q-11 0 -23 -7t-18 -16l-82 -137h388q11 0 23 7t18 16z" />
    <glyph glyph-name="arrows-v" unicode="Arrows&#x2d;V" horiz-adv-x="192" 
d="M181 48l7 -7q9 -9 0 -17l-84 -84q-8 -9 -16 0l-84 84q-9 8 0 17l7 7q8 9 17 0l51 -52v392l-51 -52q-4 -4 -9 -4t-8 4l-7 7q-9 9 0 17l84 84q8 9 16 0l84 -84q9 -8 0 -17l-7 -7q-8 -9 -17 0l-51 52v-392l51 52q9 9 17 0z" />
    <glyph glyph-name="arrows-h" unicode="Arrows&#x2d;H" 
d="M400 277l7 7q9 9 17 0l84 -84q9 -8 0 -16l-84 -84q-8 -9 -17 0l-7 7q-9 8 0 17l52 51h-392l52 -51q9 -9 0 -17l-7 -7q-9 -9 -17 0l-84 84q-9 8 0 16l84 84q8 9 17 0l7 -7q9 -8 0 -17l-52 -51h392l-52 51q-9 9 0 17z" />
    <glyph glyph-name="chart-bar" unicode="Chart&#x2d;Bar" 
d="M424 96q-8 0 -8 8v240q0 8 8 8h16q8 0 8 -8v-240q0 -8 -8 -8h-16zM328 96q-8 0 -8 8v144q0 8 8 8h16q8 0 8 -8v-144q0 -8 -8 -8h-16zM136 96q-8 0 -8 8v80q0 8 8 8h16q8 0 8 -8v-80q0 -8 -8 -8h-16zM232 96q-8 0 -8 8v208q0 8 8 8h16q8 0 8 -8v-208q0 -8 -8 -8h-16z
M504 32q8 0 8 -8v-16q0 -8 -8 -8h-488q-7 0 -11.5 4.5t-4.5 11.5v360q0 8 8 8h16q8 0 8 -8v-344h472z" />
    <glyph glyph-name="camera-retro" unicode="Camera&#x2d;Retro" 
d="M32 390v20q0 6 6 6h116q6 0 6 -6v-20q0 -6 -6 -6h-116q-6 0 -6 6zM376 160q0 -50 -35 -85t-85 -35t-85 35t-35 85t35 85t85 35t85 -35t35 -85zM344 160q0 36 -26 62t-62 26t-62 -26t-26 -62t26 -62t62 -26t62 26t26 62zM224 160q0 -7 -4.5 -11.5t-11.5 -4.5t-11.5 4.5
t-4.5 11.5q0 26 19 45t45 19q7 0 11.5 -4.5t4.5 -11.5t-4.5 -11.5t-11.5 -4.5q-13 0 -22.5 -9.5t-9.5 -22.5zM512 368v-352q0 -20 -14 -34t-34 -14h-416q-20 0 -34 14t-14 34v288q0 20 14 34t34 14h136l34 45q14 19 38 19h208q20 0 34 -14t14 -34zM224 352h240q8 0 16 -3v19
q0 7 -4.5 11.5t-11.5 4.5h-208q-8 0 -13 -6zM480 304q0 7 -4.5 11.5t-11.5 4.5h-416q-7 0 -11.5 -4.5t-4.5 -11.5v-288q0 -7 4.5 -11.5t11.5 -4.5h416q7 0 11.5 4.5t4.5 11.5v288z" />
    <glyph glyph-name="key" unicode="Key" 
d="M336 416q-60 0 -102 -42t-42 -102q0 -28 10 -54l-170 -170v-80h96v64h64v64h48l42 42q26 -10 54 -10q60 0 102 42t42 102t-42 102t-102 42zM336 448q73 0 124.5 -51.5t51.5 -124.5t-51.5 -124.5t-124.5 -51.5q-23 0 -45 6l-31 -31q-7 -7 -17 -7h-19v-40q0 -10 -7 -17
t-17 -7h-40v-40q0 -10 -7 -17t-17 -7h-112q-10 0 -17 7t-7 17v91q0 10 7 17l159 159q-6 22 -6 45q0 73 51.5 124.5t124.5 51.5zM384 340q-8 0 -14 -6t-6 -14t6 -14t14 -6t14 6t6 14t-6 14t-14 6zM384 368q20 0 34 -14t14 -34t-14 -34t-34 -14t-34 14t-14 34t14 34t34 14z
" />
    <glyph glyph-name="cogs" unicode="Cogs" horiz-adv-x="640" 
d="M539 252l-3 4q-6 -1 -12 0l-3 -4q-9 -16 -27 -11q-20 7 -34 19q-16 12 -6 30l3 4q-4 5 -6 11h-9q-9 0 -15.5 5.5t-8.5 13.5q-4 20 0 39q2 8 8.5 13.5t15.5 5.5h9q2 6 6 11l-3 5q-10 17 5 30q15 12 34 19q18 6 28 -11l3 -4h12l3 4q10 17 28 11q19 -6 34 -19t5 -31l-3 -4
q4 -5 6 -11h5q9 0 15.5 -5.5t8.5 -13.5q4 -19 0 -39q-2 -8 -8.5 -13.5t-15.5 -5.5h-5q-2 -6 -6 -11l3 -4q10 -18 -6 -31q-14 -11 -34 -17q-18 -6 -27 10zM551 286l10 -18q10 4 19 11l-10 18l6 7q7 9 11 20l3 9h21q2 11 0 21h-21l-3 10q-4 10 -11 19l-6 7l10 19q-8 6 -19 10
l-10 -18l-10 2q-11 2 -22 0l-10 -2l-10 18q-10 -4 -19 -10l11 -19l-7 -7q-7 -9 -11 -19l-3 -10h-21q-2 -10 0 -21h21l3 -9q4 -11 11 -20l7 -7l-11 -18q8 -7 19 -11l10 18l10 -2q11 -2 22 0zM145 -6v31q-19 8 -36 21l-28 -16q-16 -9 -29 5q-35 38 -51 88q-6 18 11 28l27 16
q-2 21 0 42l-27 16q-17 10 -11 28q16 50 51 88q13 14 29 5l28 -16q16 12 36 21v31q0 20 19 24q50 11 102 0q8 -2 13.5 -8.5t5.5 -15.5v-31q19 -8 36 -21l27 16q17 9 30 -5q37 -40 52 -89q6 -17 -10 -27l-25 -16q3 -21 0 -42l28 -18q15 -9 11 -25q-8 -38 -56 -89
q-13 -14 -30 -5l-27 16q-17 -12 -36 -21v-31q0 -9 -5.5 -15.5t-13.5 -8.5q-51 -11 -102 0q-8 2 -13.5 8.5t-5.5 15.5zM177 0q38 -8 76 0v48l10 3q26 9 46 27l9 7l41 -24q33 37 42 65l-41 24l2 12q5 26 0 53l-2 11l41 24q-9 28 -42 65l-41 -24l-9 7q-20 18 -46 27l-10 4v47
q-19 4 -38 4t-38 -4v-48l-10 -3q-26 -9 -46 -27l-9 -7l-41 24q-26 -29 -38 -65l41 -24l-2 -12q-5 -26 0 -53l2 -11l-41 -24q12 -36 38 -65l41 24l9 -7q20 -18 46 -27l10 -4v-47zM215.5 105q-34.5 0 -58.5 24.5t-24 58.5t24 58.5t58.5 24.5t59 -24.5t24.5 -58.5t-24.5 -58.5
t-59 -24.5zM216 239q-21 0 -36 -15t-15 -36t15 -36t36 -15t36 15t15 36t-15 36t-36 15zM539 -53l-3 4h-12l-3 -4q-9 -16 -27 -10q-20 6 -34 18q-16 13 -6 31l3 4q-4 5 -6 10h-9q-9 0 -15.5 5.5t-8.5 14.5q-4 19 0 38q2 9 8.5 14.5t15.5 5.5h9q2 6 6 11l-3 4q-10 17 5 30
t34 19q18 7 28 -10l3 -5q6 1 12 0l3 5q10 17 28 10q19 -6 34 -19t5 -30l-3 -4q4 -5 6 -11h5q9 0 15.5 -5.5t8.5 -14.5q4 -19 0 -38q-2 -9 -8.5 -14.5t-15.5 -5.5h-5q-2 -5 -6 -10l3 -4q10 -18 -6 -31q-14 -12 -34 -18q-18 -5 -27 10zM551 -18l10 -18q10 4 19 10l-10 19l6 7
q7 9 11 19l3 9h21q2 11 0 22h-21l-3 9q-4 11 -11 19l-6 8l10 18q-8 7 -19 11l-10 -18l-10 1q-11 3 -22 0l-10 -1l-10 18q-10 -4 -19 -11l11 -18l-7 -8q-7 -9 -11 -19l-3 -9h-21q-2 -11 0 -22h21l3 -9q4 -10 11 -19l7 -7l-11 -19q8 -6 19 -10l10 18l10 -2q11 -2 22 0zM560 40
q0 -13 -9.5 -22.5t-22.5 -9.5t-22.5 9.5t-9.5 22.5t9.5 22.5t22.5 9.5t22.5 -9.5t9.5 -22.5zM560 344.5q0 -13.5 -9.5 -23t-22.5 -9.5t-22.5 9.5t-9.5 23t9.5 22.5t22.5 9t22.5 -9t9.5 -22.5z" />
    <glyph glyph-name="comments" unicode="Comments" horiz-adv-x="576" 
d="M570 7q10 -11 4 -25t-21 -14q-65 0 -125 39q-29 -7 -60 -7q-64 0 -116 27t-76 71q-14 2 -28 5q-59 -39 -125 -39q-15 0 -21 14t4 25q21 20 38 55q-44 43 -44 98q0 66 61 113t147 47q64 0 116 -27t76 -71q75 -9 125.5 -53.5t50.5 -104.5q0 -55 -44 -98q7 -14 16.5 -27.5
t15 -20t6.5 -7.5zM155 134q26 -6 53 -6q73 0 124.5 37.5t51.5 90.5t-51.5 90.5t-124.5 37.5t-124.5 -37.5t-51.5 -90.5q0 -42 34 -75l17 -17l-10 -20q-12 -24 -30 -47q46 5 88 33l11 7zM445 34q42 -28 88 -33q-18 23 -30 47l-10 20l17 17q34 33 34 75q0 44 -37 78.5
t-94 45.5q3 -15 3 -28q0 -65 -58.5 -111t-141.5 -49q23 -29 63.5 -46.5t88.5 -17.5q27 0 53 6l13 3z" />
    <glyph glyph-name="star-half" unicode="Star&#x2d;Half" horiz-adv-x="576" 
d="M288 45v-37l-131 -68q-17 -9 -33 2.5t-13 31.5l25 145l-106 103q-14 14 -8 33t26 22l146 21l65 132q9 18 29 18v-32l-73 -148l-163 -23l118 -115l-28 -162z" />
    <glyph glyph-name="sign-out" unicode="Sign&#x2d;Out" 
d="M48 384h132q12 0 12 -12v-8q0 -12 -12 -12h-132q-7 0 -11.5 -4.5t-4.5 -11.5v-288q0 -7 4.5 -11.5t11.5 -4.5h132q12 0 12 -12v-8q0 -12 -12 -12h-132q-20 0 -34 14t-14 34v288q0 20 14 34t34 14zM327 364q9 9 17 0l165 -164q8 -8 0 -16l-165 -164q-8 -9 -17 0l-7 7
q-9 8 0 17l132 131h-280q-12 0 -12 12v10q0 12 12 12h280l-132 131q-9 9 0 17z" />
    <glyph glyph-name="thumbtack" unicode="Thumbtack" horiz-adv-x="384" 
d="M301 244q38 -21 60.5 -55.5t22.5 -75.5q0 -7 -4.5 -11.5t-11.5 -4.5h-160v-121v-2l-8 -32q-2 -6 -8 -6t-8 6l-8 32v2v121h-160q-7 0 -11.5 4.5t-4.5 11.5q0 41 22.5 75.5t60.5 55.5l10 76h-37q-10 0 -17 7t-7 17v80q0 10 7 17t17 7h272q10 0 17 -7t7 -17v-80
q0 -10 -7 -17t-17 -7h-37zM33 129h318q-5 31 -26.5 55.5t-53.5 38.5l-15 129h64v64h-256v-64h64l-15 -129q-32 -14 -53.5 -38.5t-26.5 -55.5z" />
    <glyph glyph-name="external-link" unicode="External&#x2d;Link" horiz-adv-x="576" 
d="M196 73q-9 9 0 17l323 323l-1 1h-90q-5 0 -8.5 3.5t-3.5 8.5v10q0 5 3.5 8.5t8.5 3.5h136q12 0 12 -12v-136q0 -5 -3.5 -8.5t-8.5 -3.5h-10q-5 0 -8.5 3.5t-3.5 8.5v90l-1 1l-323 -323q-8 -9 -17 0zM428 229q5 5 12.5 2t7.5 -11v-236q0 -20 -14 -34t-34 -14h-352
q-20 0 -34 14t-14 34v352q0 20 14 34t34 14h348q8 0 11 -7.5t-3 -12.5l-8 -8q-3 -4 -8 -4h-340q-7 0 -11.5 -4.5t-4.5 -11.5v-352q0 -7 4.5 -11.5t11.5 -4.5h352q7 0 11.5 4.5t4.5 11.5v228q0 5 4 9z" />
    <glyph glyph-name="sign-in" unicode="Sign&#x2d;In" 
d="M184 364l164 -164q9 -8 0 -16l-164 -164q-8 -9 -17 0l-7 7q-9 8 0 17l132 131h-280q-12 0 -12 12v10q0 12 12 12h280l-132 131q-9 9 0 17l7 7q8 9 17 0zM512 48q0 -20 -14 -34t-34 -14h-132q-12 0 -12 12v8q0 12 12 12h132q7 0 11.5 4.5t4.5 11.5v288q0 7 -4.5 11.5
t-11.5 4.5h-132q-12 0 -12 12v8q0 12 12 12h132q20 0 34 -14t14 -34v-288z" />
    <glyph glyph-name="trophy" unicode="Trophy" horiz-adv-x="576" 
d="M448 384h116q12 0 12 -12v-62q0 -48 -46.5 -93t-114.5 -55q-20 -43 -50 -67t-61 -30v-97h86q11 0 18.5 -7.5t7.5 -18.5q0 -6 -6 -6h-244q-6 0 -6 6q0 11 7.5 18.5t18.5 7.5h86v97q-31 6 -61 30t-50 67q-68 10 -114.5 55t-46.5 93v62q0 12 12 12h116v52q0 12 12 12h296
q12 0 12 -12v-52zM32 310q0 -32 32.5 -65.5t81.5 -46.5q-18 57 -18 130v24h-96v-42zM288 96q54 0 91 68t37 164v88h-256v-88q0 -96 37 -164t91 -68zM544 310v42h-96v-24q0 -73 -18 -130q49 13 81.5 46.5t32.5 65.5z" />
    <glyph glyph-name="upload" unicode="Upload" 
d="M452 16q0 -8 -6 -14t-14 -6t-14 6t-6 14t6 14t14 6t14 -6t6 -14zM368 36q8 0 14 -6t6 -14t-6 -14t-14 -6t-14 6t-6 14t6 14t14 6zM512 84v-104q0 -18 -13 -31t-31 -13h-424q-18 0 -31 13t-13 31v104q0 18 13 31t31 13h124v99h-53q-26 0 -36.5 25t8.5 44l141 140
q11 12 28 12t28 -12l141 -140q19 -19 8.5 -44t-36.5 -25h-53v-99h124q18 0 31 -13t13 -31zM200 259v-187q0 -8 8 -8h96q8 0 8 8v187h85q5 0 7 5t-2 9l-140 141q-6 5 -12 0l-140 -141q-4 -4 -2 -9t7 -5h85zM480 84q0 12 -12 12h-124v-24q0 -17 -11.5 -28.5t-28.5 -11.5h-96
q-17 0 -28.5 11.5t-11.5 28.5v24h-124q-12 0 -12 -12v-104q0 -12 12 -12h424q12 0 12 12v104z" />
    <glyph glyph-name="lemon" unicode="Lemon" 
d="M489 425q17 -17 21.5 -38.5t-4.5 -36.5q-8 -13 -9 -34.5t2.5 -44t2.5 -52t-6 -58.5t-24.5 -64t-52.5 -68t-68 -52.5t-64 -24.5t-58.5 -6t-52 2.5t-44 2.5t-34.5 -9q-15 -9 -36.5 -4.5t-38.5 21.5t-21.5 38.5t4.5 36.5q8 13 9 34.5t-2.5 44t-2.5 52t6 58.5t24.5 64
t52.5 68t68 52.5t64 24.5t58.5 6t52 -2.5t44 -2.5t34.5 9q10 6 24 6q28 0 51 -23zM478 366q9 16 -12 36.5t-36 11.5q-20 -12 -48.5 -12.5t-58 2.5t-62 1.5t-71 -19t-75 -54t-54 -75t-19 -71t1.5 -62t2.5 -58t-12.5 -48.5q-9 -15 12 -36t36 -12q20 12 48.5 12.5t58 -2.5
t62 -1.5t71 19t75 54t54 75t19 71t-1.5 62t-2.5 58t12.5 48.5zM259 336q-49 -11 -92.5 -54.5t-54.5 -92.5q-3 -13 -16 -13h-3q-7 2 -10.5 7.5t-2.5 11.5q13 59 63.5 109.5t109.5 63.5q6 1 11.5 -2.5t7 -10t-2 -12t-10.5 -7.5z" />
    <glyph glyph-name="phone" unicode="Phone" 
d="M488 424q10 -2 17 -11t7 -19q0 -190 -134 -324t-324 -134q-10 0 -19 7t-11 17l-23 101q-3 11 2 21t16 15l108 46q22 10 37 -9l44 -54q107 53 160 160l-54 44q-19 15 -9 37l46 108q5 11 15 16t21 2zM55 -32q115 0 213 57t155 154.5t57 213.5l-100 23l-46 -108l73 -59
q-36 -78 -83 -125t-125 -83l-59 73l-108 -46z" />
    <glyph glyph-name="phone-square" unicode="Phone&#x2d;Square" horiz-adv-x="448" 
d="M400 416q20 0 34 -14t14 -34v-352q0 -20 -14 -34t-34 -14h-352q-20 0 -34 14t-14 34v352q0 20 14 34t34 14h352zM416 16v352q0 7 -4.5 11.5t-11.5 4.5h-352q-7 0 -11.5 -4.5t-4.5 -11.5v-352q0 -7 4.5 -11.5t11.5 -4.5h352q7 0 11.5 4.5t4.5 11.5zM361 338
q10 -3 16.5 -11t6.5 -18q0 -115 -81 -196t-196 -81q-10 0 -18 6.5t-11 16.5l-13 58q-3 11 2 20.5t15 13.5l63 27q20 9 34 -8l20 -24q20 11 42 33t33 42l-24 20q-17 14 -8 34l27 63q3 8 11 13t16 5q3 0 7 -1zM109 64q100 1 171 72t72 171l-55 13l-25 -60l42 -34
q-22 -48 -49.5 -75t-74.5 -49l-34 42l-60 -25z" />
    <glyph glyph-name="unlock" unicode="Unlock" horiz-adv-x="384" 
d="M336 192q20 0 34 -14t14 -34v-160q0 -20 -14 -34t-34 -14h-288q-20 0 -34 14t-14 34v160q0 20 14 34t34 14h16v96q0 71 32.5 115.5t96 44.5t95.5 -45.5t32 -116.5v-18q0 -12 -12 -12h-8q-12 0 -12 12v20q0 58 -23 93t-73 35t-73 -35t-23 -93v-96h240zM352 -16v160
q0 7 -4.5 11.5t-11.5 4.5h-288q-7 0 -11.5 -4.5t-4.5 -11.5v-160q0 -7 4.5 -11.5t11.5 -4.5h288q7 0 11.5 4.5t4.5 11.5z" />
    <glyph glyph-name="credit-card" unicode="Credit&#x2d;Card" horiz-adv-x="576" 
d="M528 416q20 0 34 -14t14 -34v-352q0 -20 -14 -34t-34 -14h-480q-20 0 -34 14t-14 34v352q0 20 14 34t34 14h480zM48 384q-7 0 -11.5 -4.5t-4.5 -11.5v-48h512v48q0 7 -4.5 11.5t-11.5 4.5h-480zM528 0q7 0 11.5 4.5t4.5 11.5v208h-512v-208q0 -7 4.5 -11.5t11.5 -4.5h480
zM192 84v-8q0 -12 -12 -12h-72q-12 0 -12 12v8q0 12 12 12h72q12 0 12 -12zM384 84v-8q0 -12 -12 -12h-136q-12 0 -12 12v8q0 12 12 12h136q12 0 12 -12z" />
    <glyph glyph-name="rss" unicode="Rss" horiz-adv-x="448" 
d="M80 96q-20 0 -34 -14t-14 -34t14 -34t34 -14t34 14t14 34t-14 34t-34 14zM80 128q33 0 56.5 -23.5t23.5 -56.5t-23.5 -56.5t-56.5 -23.5t-56.5 23.5t-23.5 56.5t23.5 56.5t56.5 23.5zM448 -20q0 -5 -3.5 -8.5t-8.5 -3.5h-8q-5 0 -8.5 3.5t-3.5 8.5q-3 108 -57.5 200
t-146.5 146.5t-200 57.5q-5 0 -8.5 3.5t-3.5 8.5v8q0 5 3.5 8.5t8.5 3.5q117 -3 216 -61.5t158 -158t62 -216.5zM304 -20q0 -5 -3.5 -8.5t-8.5 -3.5h-8q-12 0 -12 12q-5 105 -80 180t-180 80q-12 0 -12 12v8q0 5 3.5 8.5t8.5 3.5q119 -5 203 -89t89 -203z" />
    <glyph glyph-name="hdd" unicode="Hdd" horiz-adv-x="576" 
d="M567 221q9 -13 9 -29v-144q0 -20 -14 -34t-34 -14h-480q-20 0 -34 14t-14 34v144q0 16 9 29l105 143q6 8 17 14t21 6h272q10 0 21 -6t17 -14zM140 345l-89 -121h474l-89 121q-4 7 -12 7h-272q-8 0 -12 -7zM544 176q0 7 -4.5 11.5t-11.5 4.5h-480q-7 0 -11.5 -4.5
t-4.5 -11.5v-128q0 -7 4.5 -11.5t11.5 -4.5h480q7 0 11.5 4.5t4.5 11.5v128zM488 112q0 -10 -7 -17t-17 -7t-17 7t-7 17t7 17t17 7t17 -7t7 -17zM424 112q0 -10 -7 -17t-17 -7t-17 7t-7 17t7 17t17 7t17 -7t7 -17z" />
    <glyph glyph-name="bullhorn" unicode="Bullhorn" horiz-adv-x="576" 
d="M544 263q32 -19 32 -55t-32 -55v-153q0 -10 -8 -21t-24 -11q-11 0 -20 7l-85 68q-66 53 -151 53h-28q-4 -16 -4 -32q0 -43 26 -77q11 -16 2 -33.5t-28 -17.5h-107q-20 0 -28 17q-25 53 -25 111v32q-27 0 -45.5 18.5t-18.5 45.5v96q0 27 18.5 45.5t45.5 18.5h192
q85 0 151 53l85 68q9 7 20 7q16 0 24 -11t8 -21v-153zM224 -32q-32 42 -32 96q0 14 3 32h-99v-32q0 -50 22 -96h106zM64 128h192v160h-192q-13 0 -22.5 -9.5t-9.5 -22.5v-96q0 -13 9.5 -22.5t22.5 -9.5zM512 1v415v0l-85 -68q-61 -49 -139 -58v-164q78 -9 139 -58l85 -68v1z
" />
    <glyph glyph-name="certificate" unicode="Certificate" 
d="M496 176q22 -22 14 -52t-38 -38l-23 -5l7 -23q8 -30 -14 -52t-52 -14l-22 7l-6 -23q-8 -30 -38.5 -38t-51.5 14l-16 17l-16 -17q-22 -22 -52 -14t-38 38l-6 23l-22 -7q-30 -8 -52 14t-14 52l7 23l-23 5q-30 8 -38 38t14 52l17 16l-17 16q-22 22 -14 52t38 38l23 6l-7 22
q-8 30 14 52t52 14l22 -7l6 23q8 30 38 38t52 -14l16 -17l16 17q22 22 52 14t38 -38l6 -23l22 7q30 8 52 -14t14 -52l-7 -22l23 -6q30 -8 38 -38t-14 -52l-17 -16zM464 117q12 3 15 15t-5 21l-41 39l41 39q8 9 5 21t-15 15l-55 14l16 54q3 12 -5.5 20.5t-20.5 5.5l-54 -15
l-14 54q-3 12 -15 15t-21 -5l-39 -41l-39 41q-9 8 -21 5t-15 -15l-14 -54l-54 15q-12 3 -20.5 -5.5t-5.5 -20.5l16 -54l-55 -14q-12 -3 -15 -15t5 -21l41 -39l-41 -39q-8 -9 -5 -21t15 -15l55 -14l-16 -54q-3 -12 5.5 -20.5t20.5 -5.5l54 16l14 -55q3 -12 15 -15t21 5l39 41
l39 -41q9 -8 21 -5t15 15l14 55l54 -16q12 -3 20.5 5.5t5.5 20.5l-16 54z" />
    <glyph glyph-name="hand-point-right" unicode="Hand&#x2d;Point&#x2d;Right" 
d="M442 301q28 0 49 -21t21 -50q0 -28 -21 -49t-49 -21h-57v-1q-1 -21 -12 -40q7 -36 -17 -65q1 -39 -22 -62.5t-66 -23.5h-24q-31 0 -73.5 20t-51.5 22q-9 -10 -23 -10h-64q-13 0 -22.5 9.5t-9.5 22.5v224q0 13 9.5 22.5t22.5 9.5h64q18 0 27 -15q13 6 32 28.5t29 38.5
q3 5 10 20.5t13 26t19 20t30 9.5q31 0 52.5 -20t21.5 -50q0 -23 -10 -45h122zM32 256v-224h64v224h-64zM442 192q15 0 26.5 11.5t11.5 26.5q0 16 -11.5 27.5t-26.5 11.5h-173q0 7 14.5 31t14.5 46q0 16 -12 27t-30 11q-11 0 -18 -8.5t-14.5 -26.5t-12.5 -26
q-14 -23 -38.5 -49.5t-44.5 -33.5v-199q14 -3 52.5 -22t63.5 -19h24q66 0 55 67q12 7 17 24.5t-3 33.5q15 15 16 35.5t-11 31.5h100zM84 64q0 -8 -6 -14t-14 -6t-14 6t-6 14t6 14t14 6t14 -6t6 -14z" />
    <glyph glyph-name="hand-point-left" unicode="Hand&#x2d;Point&#x2d;Left" 
d="M0 230q0 29 21 50t49 21h122q-10 22 -10 45q0 30 21.5 50t52.5 20q17 0 30 -9.5t19 -20t13 -26t10 -20.5q10 -16 29 -38.5t32 -28.5q9 15 27 15h64q13 0 22.5 -9.5t9.5 -22.5v-224q0 -13 -9.5 -22.5t-22.5 -9.5h-64q-14 0 -23 10q-9 -2 -51.5 -22t-73.5 -20h-24
q-43 0 -66 23.5t-22 62.5q-24 29 -17 65q-11 19 -12 40v1h-57q-28 0 -49 21t-21 49zM480 32v224h-64v-224h64zM32 230q0 -15 11.5 -26.5t26.5 -11.5h100q-12 -11 -11 -31.5t16 -35.5q-8 -16 -3 -33.5t17 -24.5q-11 -67 55 -67h24q25 0 63.5 19t52.5 22v199q-20 7 -44.5 33.5
t-39.5 49.5q-4 8 -11.5 26t-14.5 26.5t-18 8.5q-18 0 -30 -11t-12 -27q0 -22 14.5 -46t14.5 -31h-173q-15 0 -26.5 -11.5t-11.5 -27.5zM448 84q8 0 14 -6t6 -14t-6 -14t-14 -6t-14 6t-6 14t6 14t14 6z" />
    <glyph glyph-name="hand-point-up" unicode="Hand&#x2d;Point&#x2d;Up" horiz-adv-x="448" 
d="M115 378q0 28 21 49t50 21q28 0 49 -21t21 -49v-57h1q21 -1 40 -12q36 7 65 -17q39 1 62.5 -22t23.5 -66v-24q0 -31 -20 -73.5t-22 -51.5q10 -9 10 -23v-64q0 -13 -9.5 -22.5t-22.5 -9.5h-224q-13 0 -22.5 9.5t-9.5 22.5v64q0 18 15 27q-6 13 -28.5 32t-38.5 29
q-5 3 -20.5 10t-26 13t-20 19t-9.5 30q0 31 20 52.5t50 21.5q23 0 45 -10v122zM160 -32h224v64h-224v-64zM224 378q0 15 -11.5 26.5t-26.5 11.5q-16 0 -27.5 -11.5t-11.5 -26.5v-173q-7 0 -31 14.5t-46 14.5q-16 0 -27 -12t-11 -30q0 -11 8.5 -18t26.5 -14.5t26 -12.5
q23 -14 49.5 -38.5t33.5 -44.5h199q3 14 22 52.5t19 63.5v24q0 66 -67 55q-7 12 -24.5 17t-33.5 -3q-15 15 -35.5 16t-31.5 -11v100zM352 20q8 0 14 -6t6 -14t-6 -14t-14 -6t-14 6t-6 14t6 14t14 6z" />
    <glyph glyph-name="hand-point-down" unicode="Hand&#x2d;Point&#x2d;Down" horiz-adv-x="448" 
d="M186 -64q-29 0 -50 21t-21 49v122q-22 -10 -45 -10q-30 0 -50 21.5t-20 52.5q0 17 9.5 30t20 19t26 13t20.5 10q16 10 38.5 29t28.5 32q-15 9 -15 27v64q0 13 9.5 22.5t22.5 9.5h224q13 0 22.5 -9.5t9.5 -22.5v-64q0 -14 -10 -23q2 -9 22 -51.5t20 -73.5v-24
q0 -43 -23.5 -66t-62.5 -22q-29 -24 -65 -17q-19 -11 -40 -12h-1v-57q0 -28 -21 -49t-49 -21zM384 416h-224v-64h224v64zM186 -32q15 0 26.5 11.5t11.5 26.5v100q11 -12 31.5 -11t35.5 16q16 -8 33.5 -3t24.5 17q67 -11 67 55v24q0 25 -19 63.5t-22 52.5h-199
q-7 -20 -33.5 -44.5t-49.5 -39.5q-8 -4 -26 -11.5t-26.5 -14.5t-8.5 -18q0 -18 11 -30t27 -12q22 0 46 14.5t31 14.5v-173q0 -15 11.5 -26.5t27.5 -11.5zM332 384q0 8 6 14t14 6t14 -6t6 -14t-6 -14t-14 -6t-14 6t-6 14z" />
    <glyph glyph-name="arrow-circle-left" unicode="Arrow&#x2d;Circle&#x2d;Left" 
d="M504 192q0 -103 -72.5 -175.5t-175.5 -72.5t-175.5 72.5t-72.5 175.5t72.5 175.5t175.5 72.5t175.5 -72.5t72.5 -175.5zM256 -24q90 0 153 63.5t63 152.5q0 90 -63.5 153t-152.5 63q-90 0 -153 -63.5t-63 -152.5q0 -90 63.5 -153t152.5 -63zM244 68l-116 116q-8 8 0 16
l116 116q8 8 16 0l7 -7q9 -9 0 -17l-85 -83h190q12 0 12 -12v-10q0 -12 -12 -12h-190l85 -83q9 -8 1 -17l-7 -7q-9 -8 -17 0z" />
    <glyph glyph-name="arrow-circle-right" unicode="Arrow&#x2d;Circle&#x2d;Right" 
d="M8 192q0 103 72.5 175.5t175.5 72.5t175.5 -72.5t72.5 -175.5t-72.5 -175.5t-175.5 -72.5t-175.5 72.5t-72.5 175.5zM256 408q-90 0 -153 -63.5t-63 -152.5q0 -90 63.5 -153t152.5 -63q90 0 153 63.5t63 152.5q0 90 -63.5 153t-152.5 63zM268 316l116 -116q8 -8 0 -16
l-116 -116q-8 -8 -16 0l-7 7q-9 9 0 17l85 83h-190q-12 0 -12 12v10q0 12 12 12h190l-85 83q-9 8 -1 17l7 7q9 8 17 0z" />
    <glyph glyph-name="arrow-circle-up" unicode="Arrow&#x2d;Circle&#x2d;Up" 
d="M256 -56q-103 0 -175.5 72.5t-72.5 175.5t72.5 175.5t175.5 72.5t175.5 -72.5t72.5 -175.5t-72.5 -175.5t-175.5 -72.5zM40 192q0 -90 63.5 -153t152.5 -63q90 0 153 63.5t63 152.5q0 90 -63.5 153t-152.5 63q-90 0 -153 -63.5t-63 -152.5zM132 204l116 116q8 8 16 0
l116 -116q8 -8 0 -16l-7 -7q-9 -9 -17 0l-83 85v-190q0 -12 -12 -12h-10q-12 0 -12 12v190l-83 -85q-8 -9 -17 -1l-7 7q-8 9 0 17z" />
    <glyph glyph-name="arrow-circle-down" unicode="Arrow&#x2d;Circle&#x2d;Down" 
d="M256 440q103 0 175.5 -72.5t72.5 -175.5t-72.5 -175.5t-175.5 -72.5t-175.5 72.5t-72.5 175.5t72.5 175.5t175.5 72.5zM472 192q0 90 -63.5 153t-152.5 63q-90 0 -153 -63.5t-63 -152.5q0 -90 63.5 -153t152.5 -63q90 0 153 63.5t63 152.5zM380 196q8 -8 0 -16l-116 -116
q-8 -8 -16 0l-116 116q-8 8 0 17l7 7q9 8 17 -1l83 -85v190q0 12 12 12h10q12 0 12 -12v-190l83 85q8 9 17 0z" />
    <glyph glyph-name="globe" unicode="Globe" horiz-adv-x="496" 
d="M248 440q103 0 175.5 -72.5t72.5 -175.5t-72.5 -175.5t-175.5 -72.5t-175.5 72.5t-72.5 175.5t72.5 175.5t175.5 72.5zM441 288q-40 81 -125 109q29 -41 43 -109h82zM336 192q0 32 -4 64h-168q-4 -32 -4 -64t4 -64h168q4 32 4 64zM248 408q-21 0 -43.5 -32.5t-34.5 -87.5
h156q-12 55 -34.5 87.5t-43.5 32.5zM180 397q-85 -28 -125 -109h82q14 67 43 109zM32 192q0 -33 10 -64h90q-4 32 -4 64q0 31 4 64h-90q-10 -31 -10 -64zM55 96q40 -81 125 -109q-29 41 -43 109h-82zM248 -24q21 0 43.5 32.5t34.5 87.5h-156q12 -55 34.5 -87.5t43.5 -32.5z
M316 -13q85 28 125 109h-82q-14 -67 -43 -109zM364 128h90q10 31 10 64t-10 64h-90q4 -32 4 -64q0 -31 -4 -64z" />
    <glyph glyph-name="wrench" unicode="Wrench" 
d="M507 334q10 -39 -0.5 -77t-39 -66.5t-67 -39t-77.5 -0.5l-193 -193q-23 -22 -54.5 -22t-53.5 22t-22 53.5t22 54.5l194 193q-11 39 -0.5 77.5t38.5 67t66.5 39t76.5 0.5q16 -3 20 -18.5t-7 -26.5l-64 -64l8 -44l44 -8l64 64q11 11 26.5 7t18.5 -19zM445 213q44 44 33 104
l-69 -69l-83 14l-14 83l69 69q-10 2 -20 2q-49 0 -84 -35q-24 -24 -31.5 -56.5t3.5 -65.5l3 -9l-207 -207q-13 -13 -13 -31t13 -31q12 -13 31 -13t31 13l207 207l9 -3q33 -11 65.5 -3.5t56.5 31.5zM80 32q7 0 11.5 -4.5t4.5 -11.5t-4.5 -11.5t-11.5 -4.5t-11.5 4.5
t-4.5 11.5t4.5 11.5t11.5 4.5z" />
    <glyph glyph-name="tasks" unicode="Tasks" 
d="M145 241l12 -11q2 -3 2 -6t-2 -6l-88 -88q-3 -2 -6 -2t-6 2l-56 56q-2 3 -2 6t2 6l12 11q2 2 5.5 2t5.5 -2l39 -39l71 71q2 2 5.5 2t5.5 -2zM63 64q13 0 22.5 -9.5t9.5 -22.5t-9.5 -22.5t-22.5 -9.5t-22.5 9.5t-9.5 22.5t9.5 22.5t22.5 9.5zM145 401l12 -11q2 -3 2 -6
t-2 -6l-88 -88q-3 -2 -6 -2t-6 2l-56 56q-2 3 -2 6t2 6l12 11q2 2 5.5 2t5.5 -2l39 -39l71 71q2 2 5.5 2t5.5 -2zM503 48q8 0 8 -8v-16q0 -8 -8 -8h-304q-8 0 -8 8v16q0 8 8 8h304zM503 368q8 0 8 -8v-16q0 -8 -8 -8h-304q-8 0 -8 8v16q0 8 8 8h304zM503 208q8 0 8 -8v-16
q0 -8 -8 -8h-304q-8 0 -8 8v16q0 8 8 8h304z" />
    <glyph glyph-name="filter" unicode="Filter" 
d="M480 448q21 0 29.5 -20t-6.5 -35l-183 -182v-243q0 -21 -19 -29.5t-34 5.5l-64 56q-11 9 -11 24v187l-183 182q-15 15 -6.5 35t29.5 20h448zM288 224l192 192h-448l192 -192v-200l64 -56v256z" />
    <glyph glyph-name="briefcase" unicode="Briefcase" 
d="M464 320q20 0 34 -14t14 -34v-256q0 -20 -14 -34t-34 -14h-416q-20 0 -34 14t-14 34v256q0 20 14 34t34 14h112v72q0 10 7 17t17 7h144q10 0 17 -7t7 -17v-72h112zM192 384v-64h128v64h-128zM480 16v144h-160v-40q0 -10 -7 -17t-17 -7h-80q-10 0 -17 7t-7 17v40h-160
v-144q0 -7 4.5 -11.5t11.5 -4.5h416q7 0 11.5 4.5t4.5 11.5zM224 128h64v32h-64v-32zM480 192v80q0 7 -4.5 11.5t-11.5 4.5h-416q-7 0 -11.5 -4.5t-4.5 -11.5v-80h448z" />
    <glyph glyph-name="arrows-alt" unicode="Arrows&#x2d;Alt" 
d="M502 215q10 -9 10 -23t-10 -23l-66 -67q-16 -15 -36 -6.5t-20 30.5v50h-108v-108h50q22 0 30.5 -20t-6.5 -36l-67 -66q-9 -10 -23 -10t-23 10l-67 66q-15 16 -6.5 36t30.5 20h50v108h-108v-50q0 -22 -20 -30.5t-36 6.5l-66 67q-10 9 -10 23t10 23l66 67q16 15 36 6.5
t20 -30.5v-50h108v108h-50q-22 0 -30.5 20t6.5 36l67 66q9 10 23 10t23 -10l67 -66q15 -16 6.5 -36t-30.5 -20h-50v-108h108v50q0 22 20 30.5t36 -6.5zM104 126v132q0 3 -2.5 4t-4.5 -1l-67 -66q-3 -3 0 -6l67 -66q2 -2 4.5 -1t2.5 4zM322 40h-132q-3 0 -4 -2.5t1 -4.5
l66 -67q3 -3 6 0l66 67q2 2 1 4.5t-4 2.5zM190 344h132q3 0 4 2.5t-1 4.5l-66 67q-3 3 -6 0l-66 -67q-2 -2 -1 -4.5t4 -2.5zM482 189q3 3 0 6l-67 66q-2 2 -4.5 1t-2.5 -4v-132q0 -3 2.5 -4t4.5 1z" />
    <glyph glyph-name="users" unicode="Users" horiz-adv-x="640" 
d="M544 224q-33 0 -56.5 23.5t-23.5 56.5t23.5 56.5t56.5 23.5t56.5 -23.5t23.5 -56.5t-23.5 -56.5t-56.5 -23.5zM544 352q-20 0 -34 -14t-14 -34t14 -34t34 -14t34 14t14 34t-14 34t-34 14zM320 192q-46 0 -79 33t-33 79t33 79t79 33t79 -33t33 -79t-33 -79t-79 -33z
M320 384q-33 0 -56.5 -23.5t-23.5 -56.5t23.5 -56.5t56.5 -23.5t56.5 23.5t23.5 56.5t-23.5 56.5t-56.5 23.5zM564 192q31 0 53.5 -23.5t22.5 -56.5q0 -7 -4.5 -11.5t-11.5 -4.5t-11.5 4.5t-4.5 11.5q0 20 -13 34t-31 14h-40q-8 0 -16 -3q-11 12 -25 22q19 13 41 13h40z
M96 224q-33 0 -56.5 23.5t-23.5 56.5t23.5 56.5t56.5 23.5t56.5 -23.5t23.5 -56.5t-23.5 -56.5t-56.5 -23.5zM96 352q-20 0 -34 -14t-14 -34t14 -34t34 -14t34 14t14 34t-14 34t-34 14zM400 172q61 0 92 -47q20 -29 20 -64v-45q0 -20 -14 -34t-34 -14h-288q-20 0 -34 14
t-14 34v45q0 35 20 64q31 47 92 47q16 0 38 -6t42 -6t42 6t38 6zM480 16v45q0 25 -14 46q-22 33 -66 33q-12 0 -34.5 -6t-45.5 -6t-45.5 6t-34.5 6q-44 0 -66 -33q-14 -21 -14 -46v-45q0 -7 4.5 -11.5t11.5 -4.5h288q7 0 11.5 4.5t4.5 11.5zM157 179q-14 -10 -25 -22
q-8 3 -16 3h-40q-18 0 -31 -14t-13 -34q0 -7 -4.5 -11.5t-11.5 -4.5t-11.5 4.5t-4.5 11.5q0 33 22.5 56.5t53.5 23.5h40q22 0 41 -13z" />
    <glyph glyph-name="link" unicode="Link" 
d="M301 53l-79 -79q-38 -38 -92 -38t-92 38t-38 92t38 92l79 79l4 4q5 5 12.5 2t7.5 -11q0 -7 1 -14q1 -6 -3 -10l-75 -76q-28 -27 -28 -66t27.5 -66.5t66.5 -27.5t66 28l80 79q27 28 27 66.5t-27 66.5q-12 12 -28 19q-8 3 -7 11q0 8 3 16q1 5 6 7t10 0q23 -10 41 -28
q38 -38 38 -92t-38 -92zM211 147q-38 38 -38 92t38 92l79 79q38 38 92 38t92 -38t38 -92t-38 -92l-79 -79l-4 -4q-5 -5 -12.5 -2t-7.5 11q0 7 -1 14q-1 6 3 10l75 76q28 27 28 66t-27.5 66.5t-66.5 27.5t-66 -28l-80 -79q-27 -28 -27 -66.5t27 -66.5q12 -12 28 -19
q8 -3 7 -11q0 -8 -3 -16q-1 -5 -6 -7t-10 0q-23 10 -41 28z" />
    <glyph glyph-name="cloud" unicode="Cloud" horiz-adv-x="640" 
d="M572 209q31 -17 49.5 -47.5t18.5 -65.5q0 -53 -37.5 -90.5t-90.5 -37.5h-368q-60 0 -102 42t-42 102q0 46 26.5 83.5t69.5 52.5q3 70 54 119t122 49q44 0 82 -20t62 -55q23 11 48 11q46 0 79 -33t33 -79q0 -16 -4 -31zM512 0q40 0 68 28t28 68q0 36 -23 62.5t-58 32.5
q17 21 17 49q0 33 -23.5 56.5t-56.5 23.5q-35 0 -59 -26q-16 40 -52 65t-81 25q-60 0 -102 -42t-42 -102q0 -9 1 -17q-41 -6 -69 -37.5t-28 -73.5q0 -46 33 -79t79 -33h368z" />
    <glyph glyph-name="flask" unicode="Flask" horiz-adv-x="448" 
d="M435 37q24 -31 6.5 -66t-56.5 -35h-322q-39 0 -56.5 35t6.5 66l147 192v187h-26q-6 0 -6 6v20q0 6 6 6h180q6 0 6 -6v-20q0 -6 -6 -6h-26v-187zM385 -32q19 0 27.5 17.5t-2.5 32.5l-151 196q-3 5 -3 10v192h-64v-192q0 -5 -3 -10l-151 -196q-11 -15 -2.5 -32.5
t27.5 -17.5h322z" />
    <glyph glyph-name="cut" unicode="Cut" horiz-adv-x="448" 
d="M250 192l197 -197q1 -1 1 -3t-1 -3q-10 -9 -23 -9t-22 9l-178 178l-49 -49q17 -24 17 -54q0 -40 -28 -68t-68 -28t-68 28t-28 68t28 68t68 28q30 0 54 -17l49 49l-49 49q-24 -17 -54 -17q-40 0 -68 28t-28 68t28 68t68 28t68 -28t28 -68q0 -30 -17 -54l49 -49l178 178
q9 9 22 9t23 -9q1 -1 1 -3t-1 -3zM96 256q26 0 45 19t19 45t-19 45t-45 19t-45 -19t-19 -45t19 -45t45 -19zM96 0q26 0 45 19t19 45t-19 45t-45 19t-45 -19t-19 -45t19 -45t45 -19z" />
    <glyph glyph-name="copy" unicode="Copy" horiz-adv-x="448" 
d="M434 382q14 -14 14 -34v-268q0 -20 -14 -34t-34 -14h-80v-48q0 -20 -14 -34t-34 -14h-224q-20 0 -34 14t-14 34v320q0 20 14 34t34 14h80v48q0 20 14 34t34 14h172q20 0 34 -14zM352 416v-64h64q-2 4 -5 7l-52 52q-3 3 -7 5zM288 -16v48h-112q-20 0 -34 14t-14 34v240
h-80q-7 0 -11.5 -4.5t-4.5 -11.5v-320q0 -7 4.5 -11.5t11.5 -4.5h224q7 0 11.5 4.5t4.5 11.5zM416 80v240h-72q-10 0 -17 7t-7 17v72h-144q-7 0 -11.5 -4.5t-4.5 -11.5v-320q0 -7 4.5 -11.5t11.5 -4.5h224q7 0 11.5 4.5t4.5 11.5z" />
    <glyph glyph-name="paperclip" unicode="Paperclip" 
d="M149.5 -64q-53.5 0 -91.5 38t-38 91.5t38 90.5l262 263q29 29 71 29t71.5 -29.5t29.5 -71.5t-29 -71l-223 -223q-21 -21 -51.5 -21t-51.5 21t-21 51.5t21 51.5l171 170q8 9 16 0l6 -5q9 -9 0 -17l-170 -171q-12 -12 -12 -28.5t12 -28.5t28.5 -12t28.5 12l223 222
q20 21 20 49.5t-20 48.5t-48.5 20t-49.5 -20l-262 -262q-28 -29 -28 -69t28.5 -68.5t68.5 -28.5t69 28l218 218q8 9 17 0l5 -6q9 -8 0 -16l-218 -218q-37 -38 -90.5 -38z" />
    <glyph glyph-name="save" unicode="Save" horiz-adv-x="448" 
d="M434 318q14 -14 14 -34v-268q0 -20 -14 -34t-34 -14h-352q-20 0 -34 14t-14 34v352q0 20 14 34t34 14h268q20 0 34 -14zM288 384h-192v-96h192v96zM416 16v268q0 7 -5 11l-84 84q-3 3 -7 5v-104q0 -10 -7 -17t-17 -7h-208q-10 0 -17 7t-7 17v104h-16q-7 0 -11.5 -4.5
t-4.5 -11.5v-352q0 -7 4.5 -11.5t11.5 -4.5h352q7 0 11.5 4.5t4.5 11.5zM224 216q36 0 62 -26t26 -62t-26 -62t-62 -26t-62 26t-26 62t26 62t62 26zM224 72q23 0 39.5 16.5t16.5 39.5t-16.5 39.5t-39.5 16.5t-39.5 -16.5t-16.5 -39.5t16.5 -39.5t39.5 -16.5z" />
    <glyph glyph-name="square" unicode="Square" horiz-adv-x="448" 
d="M400 416q20 0 34 -14t14 -34v-352q0 -20 -14 -34t-34 -14h-352q-20 0 -34 14t-14 34v352q0 20 14 34t34 14h352zM416 16v352q0 7 -4.5 11.5t-11.5 4.5h-352q-7 0 -11.5 -4.5t-4.5 -11.5v-352q0 -7 4.5 -11.5t11.5 -4.5h352q7 0 11.5 4.5t4.5 11.5z" />
    <glyph glyph-name="bars" unicode="Bars" horiz-adv-x="448" 
d="M442 334h-436q-6 0 -6 6v24q0 6 6 6h436q6 0 6 -6v-24q0 -6 -6 -6zM442 174h-436q-6 0 -6 6v24q0 6 6 6h436q6 0 6 -6v-24q0 -6 -6 -6zM442 14h-436q-6 0 -6 6v24q0 6 6 6h436q6 0 6 -6v-24q0 -6 -6 -6z" />
    <glyph glyph-name="list-ul" unicode="List&#x2d;Ul" 
d="M32.5 224q13.5 0 22.5 -9.5t9 -22.5t-9 -22.5t-22.5 -9.5t-23 9.5t-9.5 22.5t9.5 22.5t23 9.5zM32.5 384q13.5 0 22.5 -9.5t9 -22.5t-9 -22.5t-22.5 -9.5t-23 9.5t-9.5 22.5t9.5 22.5t23 9.5zM32.5 64q13.5 0 22.5 -9.5t9 -22.5t-9 -22.5t-22.5 -9.5t-23 9.5t-9.5 22.5
t9.5 22.5t23 9.5zM504 368q8 0 8 -8v-16q0 -8 -8 -8h-368q-8 0 -8 8v16q0 8 8 8h368zM504 208q8 0 8 -8v-16q0 -8 -8 -8h-368q-8 0 -8 8v16q0 8 8 8h368zM504 48q8 0 8 -8v-16q0 -8 -8 -8h-368q-8 0 -8 8v16q0 8 8 8h368z" />
    <glyph glyph-name="list-ol" unicode="List&#x2d;Ol" 
d="M62 47q14 -4 21 -13.5t7 -21.5q0 -18 -12 -31t-36 -13q-21 0 -37 9q-9 7 -3 16l6 10q5 9 16 3q7 -3 15 -3q14 0 14 8q0 9 -16 9h-4q-8 0 -13 8l-1 2q-3 7 3 15l6 7q5 6 11 12h-23q-8 0 -8 8v16q0 8 8 8h57q11 0 11 -11v-4v-1q0 -7 -5 -13zM12 128q-12 0 -12 11v4
q0 21 12.5 35.5t25.5 22t13 12.5q0 8 -9 8q-6 0 -10 -4q-9 -8 -16 -2l-8 7q-10 7 -3 15q14 19 40 19q17 0 31 -10t14 -30q0 -16 -11.5 -27.5t-24 -18.5t-13.5 -10h39q8 0 8 -8v-16q0 -8 -8 -8h-68zM16 288q-8 0 -8 8v16q0 8 8 8h16v64h-8q-8 0 -8 8q0 2 1 4l8 16q2 4 7 4h24
q8 0 8 -8v-88h16q8 0 8 -8v-16q0 -8 -8 -8h-64zM504 368q8 0 8 -8v-16q0 -8 -8 -8h-336q-8 0 -8 8v16q0 8 8 8h336zM504 48q8 0 8 -8v-16q0 -8 -8 -8h-336q-8 0 -8 8v16q0 8 8 8h336zM504 208q8 0 8 -8v-16q0 -8 -8 -8h-336q-8 0 -8 8v16q0 8 8 8h336z" />
    <glyph glyph-name="strikethrough" unicode="Strikethrough" 
d="M361 128h41q14 -24 14 -53q0 -7 -1 -14q-3 -27 -20.5 -49t-42.5 -33t-52 -11h-66q-34 0 -65 22.5t-41 54.5v3q0 6 6 7l16 4h2q6 0 7 -5q8 -23 29.5 -38.5t45.5 -15.5h66q20 0 39 8q36 16 43 52q2 7 2 15q0 13 -6.5 28.5t-16.5 24.5zM169 224q-17 13 -29.5 37t-12.5 46
q0 31 15.5 56.5t42.5 38.5q27 14 58 14h48q35 0 71.5 -22t52.5 -53q1 -2 1 -4q0 -5 -5 -7l-14 -7h-4q-4 0 -7 4q-12 24 -40 40.5t-55 16.5h-48q-23 0 -44 -10q-16 -8 -28 -27t-12 -37q-1 -21 9.5 -39t29.5 -27l40 -20h-69zM504 192q8 0 8 -8v-16q0 -8 -8 -8h-496q-8 0 -8 8
v16q0 8 8 8h496z" />
    <glyph glyph-name="underline" unicode="Underline" horiz-adv-x="448" 
d="M440 448q8 0 8 -8v-16q0 -8 -8 -8h-56v-224q0 -66 -47 -113t-113 -47t-113 47t-47 113v224h-56q-8 0 -8 8v16q0 8 8 8h144q8 0 8 -8v-16q0 -8 -8 -8h-56v-224q0 -53 37.5 -90.5t90.5 -37.5t90.5 37.5t37.5 90.5v224h-56q-8 0 -8 8v16q0 8 8 8h144zM440 -32q8 0 8 -8v-16
q0 -8 -8 -8h-432q-8 0 -8 8v16q0 8 8 8h432z" />
    <glyph glyph-name="table" unicode="Table" 
d="M464 416q20 0 34 -14t14 -34v-352q0 -20 -14 -34t-34 -14h-416q-20 0 -34 14t-14 34v352q0 20 14 34t34 14h416zM160 0v96h-128v-80q0 -7 4.5 -11.5t11.5 -4.5h112zM160 128v96h-128v-96h128zM160 256v96h-128v-96h128zM320 0v96h-128v-96h128zM320 128v96h-128v-96h128z
M320 256v96h-128v-96h128zM480 96h-128v-96h112q7 0 11.5 4.5t4.5 11.5v80zM480 128v96h-128v-96h128zM480 256v96h-128v-96h128z" />
    <glyph glyph-name="magic" unicode="Magic" 
d="M224 352l-16 32l-32 16l32 16l16 32l16 -32l32 -16l-32 -16zM80 288l-27 53l-53 27l53 27l27 53l27 -53l53 -27l-53 -27zM80 384q-7 0 -11.5 -4.5t-4.5 -11.5t4.5 -11.5t11.5 -4.5t11.5 4.5t4.5 11.5t-4.5 11.5t-11.5 4.5zM432 160l27 -53l53 -27l-53 -27l-27 -53l-27 53
l-53 27l53 27zM432 64q7 0 11.5 4.5t4.5 11.5t-4.5 11.5t-11.5 4.5t-11.5 -4.5t-4.5 -11.5t4.5 -11.5t11.5 -4.5zM503 370q9 -9 9 -22.5t-9 -22.5l-380 -380q-9 -9 -22.5 -9t-22.5 9l-69 69q-9 9 -9 22.5t9 22.5l380 380q9 9 22.5 9t22.5 -9zM101 -32l258 258l-69 69
l-258 -258zM382 249l98 98l-69 69l-98 -98z" />
    <glyph glyph-name="truck" unicode="Truck" horiz-adv-x="640" 
d="M632 64q8 0 8 -8v-16q0 -8 -8 -8h-58q2 -8 2 -16q0 -33 -23.5 -56.5t-56.5 -23.5t-56.5 23.5t-23.5 56.5q0 8 2 16h-196q2 -8 2 -16q0 -33 -23.5 -56.5t-56.5 -23.5t-56.5 23.5t-23.5 56.5q0 8 2 16h-17q-20 0 -34.5 13.5t-14.5 33.5v290q0 20 14.5 33.5t34.5 13.5h318
q20 0 34.5 -13.5t14.5 -33.5v-49h44q27 0 45 -19l84 -84q19 -18 19 -45v-108h24zM460 288h-44v-96h152l-0.5 1t-0.5 2l-84 84q-10 9 -23 9zM144 -32q20 0 34 14t14 34t-14 34t-34 14t-34 -14t-14 -34t14 -34t34 -14zM208 64h176v305q0 6 -5 10.5t-12 4.5h-318q-7 0 -12 -4.5
t-5 -10.5v-290q0 -6 5 -10.5t12 -4.5h31q25 32 64 32t64 -32zM496 -32q20 0 34 14t14 34t-14 34t-34 14t-34 -14t-14 -34t14 -34t34 -14zM496 96q39 0 64 -32h16v96h-160v-96h16q25 32 64 32z" />
    <glyph glyph-name="money-bill" unicode="Money&#x2d;Bill" horiz-adv-x="640" 
d="M320 304q40 0 68 -33t28 -79t-28 -79t-68 -33t-68 33t-28 79t28 79t68 33zM320 112q26 0 45 23.5t19 56.5t-19 56.5t-45 23.5t-45 -23.5t-19 -56.5t19 -56.5t45 -23.5zM608 384q13 0 22.5 -9.5t9.5 -22.5v-320q0 -13 -9.5 -22.5t-22.5 -9.5h-576q-13 0 -22.5 9.5
t-9.5 22.5v320q0 13 9.5 22.5t22.5 9.5h576zM32 352v-64q26 0 45 19t19 45h-64zM32 32h64q0 26 -19 45t-45 19v-64zM608 32v64q-26 0 -45 -19t-19 -45h64zM608 128v128q-40 0 -68 28t-28 68h-384q0 -40 -28 -68t-68 -28v-128q40 0 68 -28t28 -68h384q0 40 28 68t68 28z
M608 288v64h-64q0 -26 19 -45t45 -19z" />
    <glyph glyph-name="caret-down" unicode="Caret&#x2d;Down" horiz-adv-x="320" 
d="M288 288q21 0 29.5 -20t-6.5 -35l-128 -128q-10 -9 -23 -9t-23 9l-128 128q-15 15 -6.5 35t29.5 20h256zM160 128l128 128h-256z" />
    <glyph glyph-name="caret-up" unicode="Caret&#x2d;Up" horiz-adv-x="320" 
d="M32 96q-21 0 -29.5 20t6.5 35l128 128q10 9 23 9t23 -9l128 -128q15 -15 6.5 -35t-29.5 -20h-256zM160 256l-128 -128h256z" />
    <glyph glyph-name="caret-left" unicode="Caret&#x2d;Left" horiz-adv-x="192" 
d="M192 64q0 -21 -20 -29.5t-35 6.5l-128 128q-9 10 -9 23t9 23l128 128q15 15 35 6.5t20 -29.5v-256zM32 192l128 -128v256z" />
    <glyph glyph-name="caret-right" unicode="Caret&#x2d;Right" horiz-adv-x="192" 
d="M0 320q0 21 20 29.5t35 -6.5l128 -128q9 -10 9 -23t-9 -23l-128 -128q-15 -15 -35 -6.5t-20 29.5v256zM160 192l-128 128v-256z" />
    <glyph glyph-name="columns" unicode="Columns" 
d="M464 416q20 0 34 -14t14 -34v-352q0 -20 -14 -34t-34 -14h-416q-20 0 -34 14t-14 34v352q0 20 14 34t34 14h416zM240 0v352h-208v-336q0 -7 4.5 -11.5t11.5 -4.5h192zM480 16v336h-208v-352h192q7 0 11.5 4.5t4.5 11.5z" />
    <glyph glyph-name="sort" unicode="Sort" horiz-adv-x="320" 
d="M288 160q21 0 29.5 -20t-6.5 -35l-128 -128q-10 -9 -23 -9t-23 9l-128 128q-15 15 -6.5 35t29.5 20h256zM160 0l128 128h-256zM32 224q-21 0 -29.5 20t6.5 35l128 128q10 9 23 9t23 -9l128 -128q15 -15 6.5 -35t-29.5 -20h-256zM160 384l-128 -128h256z" />
    <glyph glyph-name="sort-down" unicode="Sort&#x2d;Down" horiz-adv-x="320" 
d="M288 160q21 0 29.5 -20t-6.5 -35l-128 -128q-10 -9 -23 -9t-23 9l-128 128q-15 15 -6.5 35t29.5 20h256zM160 0l128 128h-256z" />
    <glyph glyph-name="sort-up" unicode="Sort&#x2d;Up" horiz-adv-x="320" 
d="M32 224q-21 0 -29.5 20t6.5 35l128 128q10 9 23 9t23 -9l128 -128q15 -15 6.5 -35t-29.5 -20h-256zM160 384l-128 -128h256z" />
    <glyph glyph-name="envelope" unicode="Envelope" 
d="M464 384q20 0 34 -14t14 -34v-288q0 -20 -14 -34t-34 -14h-416q-20 0 -34 14t-14 34v288q0 20 14 34t34 14h416zM48 352q-7 0 -11.5 -4.5t-4.5 -11.5v-41l151 -122l14 -11.5t21 -16.5t18.5 -11t19.5 -6t19.5 6t18.5 11t20.5 16t14.5 12l151 122v41q0 7 -4.5 11.5
t-11.5 4.5h-416zM464 32q7 0 11.5 4.5t4.5 11.5v205l-131 -105q-2 -1 -13.5 -11t-18.5 -15t-18 -12t-22 -10.5t-21 -3.5t-21 3.5t-22.5 10.5t-18 12t-18 15t-13.5 11l-131 105v-205q0 -7 4.5 -11.5t11.5 -4.5h416z" />
    <glyph glyph-name="undo" unicode="Undo" 
d="M20 440h10q12 0 12 -12v-111q33 57 90 90t125 33q102 0 174.5 -73t72.5 -175q0 -103 -72.5 -175.5t-175.5 -72.5q-95 0 -166 64q-10 8 -1 17l7 7q8 8 17 1q61 -55 143 -55q88 0 151 62.5t63 151.5q0 88 -62.5 151t-151.5 63q-61 0 -112 -31.5t-78 -84.5h114q12 0 12 -12
v-10q0 -12 -12 -12h-160q-12 0 -12 12v160q0 12 12 12z" />
    <glyph glyph-name="gavel" unicode="Gavel" 
d="M501 261q11 -11 11 -26.5t-11 -26.5l-114 -114q-11 -11 -26.5 -11t-26.5 11l-21 21q-9 9 -10.5 22.5t5.5 24.5l-30 29l-59 -58l8 -9q13 -12 13 -30t-13 -31l-114 -114q-13 -13 -31 -13t-30 13l-39 39q-13 12 -13 30t13 31l114 114q13 13 31 13t30 -13l9 -8l58 59l-29 30
q-11 -7 -24.5 -5.5t-22.5 10.5l-21 21q-11 11 -11 26.5t11 26.5l114 114q11 11 26.5 11t26.5 -11l21 -21q10 -9 11 -22.5t-5 -23.5l82 -82q10 6 23.5 5t22.5 -11zM205 86q8 8 0 16l-39 39q-8 8 -16 0l-115 -115q-8 -8 0 -16l39 -39q8 -8 16 0zM478 230q2 2 2 4.5t-2 4.5
l-20 20q-2 2 -4.5 2t-4.5 -2l-16 -16l-126 126l16 16q2 2 2 4.5t-2 4.5l-20 20q-2 2 -4.5 2t-4.5 -2l-113 -113q-2 -2 -2 -4.5t2 -4.5l21 -20q1 -2 3.5 -2t4.5 2l16 16l126 -126l-16 -16q-2 -2 -2 -4.5t2 -3.5l20 -21q2 -2 4.5 -2t4.5 2z" />
    <glyph glyph-name="tachometer" unicode="Tachometer" horiz-adv-x="576" 
d="M288 416q119 0 203.5 -84.5t84.5 -203.5q0 -78 -39 -145q-9 -15 -27 -15h-444q-18 0 -27 15q-39 67 -39 145q0 119 84.5 203.5t203.5 84.5zM510 0q34 59 34 128q0 106 -75 181t-181 75t-181 -75t-75 -181q0 -69 35 -129zM365 319q6 -2 9 -8t1 -12l-52 -150q29 -19 29 -53
q0 -27 -18.5 -45.5t-45.5 -18.5t-45.5 18.5t-18.5 45.5t18.5 45.5t45.5 18.5h3t2 -1l52 150q2 6 8 9t12 1zM288 64q13 0 22.5 9.5t9.5 22.5t-9.5 22.5t-22.5 9.5t-22.5 -9.5t-9.5 -22.5t9.5 -22.5t22.5 -9.5z" />
    <glyph glyph-name="bolt" unicode="Bolt" horiz-adv-x="320" 
d="M296 288q14 0 21 -12t0 -24l-176 -304q-7 -12 -21 -12q-12 0 -19 9t-4 21l46 194h-119q-11 0 -18 8t-6 19l32 240q1 9 8 15t16 6h144q12 0 19 -9.5t4 -20.5l-42 -130h115zM140 11l142 245h-146l14 42l39 118h-126l-30 -224h150l-9 -39z" />
    <glyph glyph-name="sitemap" unicode="Sitemap" horiz-adv-x="640" 
d="M608 96q13 0 22.5 -9.5t9.5 -22.5v-96q0 -13 -9.5 -22.5t-22.5 -9.5h-96q-13 0 -22.5 9.5t-9.5 22.5v96q0 13 9.5 22.5t22.5 9.5h32v96h-208v-96h32q13 0 22.5 -9.5t9.5 -22.5v-96q0 -13 -9.5 -22.5t-22.5 -9.5h-96q-13 0 -22.5 9.5t-9.5 22.5v96q0 13 9.5 22.5t22.5 9.5
h32v96h-208v-96h32q13 0 22.5 -9.5t9.5 -22.5v-96q0 -13 -9.5 -22.5t-22.5 -9.5h-96q-13 0 -22.5 9.5t-9.5 22.5v96q0 13 9.5 22.5t22.5 9.5h32v98q0 12 9 21t21 9h210v64h-48q-13 0 -22.5 9.5t-9.5 22.5v96q0 13 9.5 22.5t22.5 9.5h128q13 0 22.5 -9.5t9.5 -22.5v-96
q0 -13 -9.5 -22.5t-22.5 -9.5h-48v-64h210q12 0 21 -9t9 -21v-98h32zM128 64h-96v-96h96v96zM368 64h-96v-96h96v96zM256 320h128v96h-128v-96zM608 -32v96h-96v-96h96z" />
    <glyph glyph-name="umbrella" unicode="Umbrella" horiz-adv-x="576" 
d="M575 194q5 -18 -11.5 -28t-32.5 3q-67 63 -125 -27q-9 -14 -23 -13.5t-23 13.5q0 1 -2 3l-13 19t-16.5 16t-24.5 13v-193q0 -27 -18.5 -45.5t-45.5 -18.5q-20 0 -36.5 11.5t-23.5 31.5q-2 6 0.5 12t9 8t12.5 -1t8 -9q7 -21 30 -21q13 0 22.5 9.5t9.5 22.5v193
q-27 -7 -56 -51q-8 -13 -22.5 -13.5t-23.5 13.5q-58 90 -125 27q-16 -14 -32.5 -3.5t-11.5 28.5q22 91 97.5 146t173.5 60v32q0 7 4.5 11.5t11.5 4.5t11.5 -4.5t4.5 -11.5v-32q98 -5 174 -60.5t97 -145.5zM383 166q33 47 72 58t84 -20q-25 76 -95.5 120t-155.5 44
t-155 -43.5t-96 -119.5q36 30 81 20t75 -59q41 61 95 61q58 0 95 -61z" />
    <glyph glyph-name="paste" unicode="Paste" horiz-adv-x="448" 
d="M434 254q14 -14 14 -34v-236q0 -20 -14 -34t-34 -14h-224q-20 0 -34 14t-14 34v48h-80q-20 0 -34 14t-14 34v288q0 20 14 34t34 14h67q5 14 17.5 23t27.5 9t27.5 -9t17.5 -23h67q20 0 34 -14t14 -34v-48h28q20 0 34 -14zM411 231l-52 52q-3 3 -7 5v-64h64q-2 4 -5 7z
M160 418q-7 0 -12.5 -5.5t-5.5 -12.5t5.5 -12.5t12.5 -5.5t12.5 5.5t5.5 12.5t-5.5 12.5t-12.5 5.5zM48 64h80v208q0 20 14 34t34 14h112v48q0 7 -4.5 11.5t-11.5 4.5h-67q-5 -14 -17.5 -23t-27.5 -9t-27.5 9t-17.5 23h-67q-7 0 -11.5 -4.5t-4.5 -11.5v-288q0 -7 4.5 -11.5
t11.5 -4.5zM400 -32q7 0 11.5 4.5t4.5 11.5v208h-72q-10 0 -17 7t-7 17v72h-144q-7 0 -11.5 -4.5t-4.5 -11.5v-288q0 -7 4.5 -11.5t11.5 -4.5h224z" />
    <glyph glyph-name="lightbulb" unicode="Lightbulb" horiz-adv-x="352" 
d="M176 448q73 0 124.5 -51.5t51.5 -124.5q0 -66 -44 -116q-18 -20 -34 -49.5t-18 -42.5v-75q0 -5 -3 -9l-24 -37q-5 -7 -14 -7h-78q-9 0 -14 7l-24 37q-3 4 -3 9v75q-2 12 -18 42t-34 50q-44 50 -44 116q0 71 50.5 123.5t125.5 52.5zM224 -6v6h-96v-6l17 -26h62zM224 32v32
h-96v-32h96zM284 177q36 41 36 95q0 60 -42 102t-102 42q-62 0 -103 -42.5t-41 -101.5q0 -54 36 -95q30 -35 50 -81h116q20 46 50 81zM176 384q7 0 11.5 -4.5t4.5 -11.5t-4.5 -11.5t-11.5 -4.5q-33 0 -56.5 -23.5t-23.5 -56.5q0 -7 -4.5 -11.5t-11.5 -4.5t-11.5 4.5
t-4.5 11.5q0 46 33 79t79 33z" />
    <glyph glyph-name="exchange" unicode="Exchange" 
d="M508 264l-92 -92q-8 -9 -17 0l-7 7q-9 8 0 17l61 60h-441q-12 0 -12 12v8q0 12 12 12h441l-61 60q-9 9 0 17l7 7q9 9 17 0l92 -92q9 -8 0 -16zM4 104q-9 8 0 16l92 92q8 9 17 0l7 -7q9 -8 0 -17l-61 -60h441q12 0 12 -12v-8q0 -12 -12 -12h-441l61 -60q9 -9 0 -17l-7 -7
q-9 -9 -17 0z" />
    <glyph glyph-name="cloud-download" unicode="Cloud&#x2d;Download" horiz-adv-x="640" 
d="M572 209q31 -17 49.5 -47.5t18.5 -65.5q0 -53 -37.5 -90.5t-90.5 -37.5h-368q-60 0 -102 42t-42 102q0 46 26.5 83.5t69.5 52.5q3 70 54 119t122 49q44 0 82 -20t62 -55q23 11 48 11q46 0 79 -33t33 -79q0 -16 -4 -31zM512 0q40 0 68 28t28 68q0 36 -23 62.5t-58 32.5
q17 21 17 49q0 33 -23.5 56.5t-56.5 23.5q-35 0 -59 -26q-16 40 -52 65t-81 25q-60 0 -102 -42t-42 -102q0 -9 1 -17q-41 -6 -69 -37.5t-28 -73.5q0 -46 33 -79t79 -33h368zM405 194l6 -6q8 -9 0 -17l-99 -99q-8 -8 -17 0l-98 99q-8 8 0 17l6 6q8 8 17 0l68 -69v151
q0 12 12 12h8q12 0 12 -12v-151l68 69q9 8 17 0z" />
    <glyph glyph-name="cloud-upload" unicode="Cloud&#x2d;Upload" horiz-adv-x="640" 
d="M312 280l99 -99q9 -8 0 -17l-6 -6q-8 -8 -17 0l-68 69v-151q0 -5 -3.5 -8.5t-8.5 -3.5h-8q-5 0 -8.5 3.5t-3.5 8.5v151l-68 -69q-9 -8 -17 0l-6 6q-8 9 0 17l99 99q8 8 16 0zM572 209q31 -17 49.5 -47.5t18.5 -65.5q0 -53 -37.5 -90.5t-90.5 -37.5h-368q-60 0 -102 42
t-42 102q0 46 26.5 83.5t69.5 52.5q3 70 54 119t122 49q44 0 82 -20t62 -55q23 11 48 11q46 0 79 -33t33 -79q0 -16 -4 -31zM512 0q40 0 68 28t28 68q0 36 -23 62.5t-58 32.5q17 21 17 49q0 33 -23.5 56.5t-56.5 23.5q-35 0 -59 -26q-16 40 -52 65t-81 25q-60 0 -102 -42
t-42 -102q0 -9 1 -17q-41 -6 -69 -37.5t-28 -73.5q0 -46 33 -79t79 -33h368z" />
    <glyph glyph-name="user-md" unicode="User&#x2d;Md" horiz-adv-x="448" 
d="M224 192q-53 0 -90.5 37.5t-37.5 90.5t37.5 90.5t90.5 37.5t90.5 -37.5t37.5 -90.5t-37.5 -90.5t-90.5 -37.5zM224 416q-40 0 -68 -28t-28 -68t28 -68t68 -28t68 28t28 68t-28 68t-68 28zM318 160q54 -2 92 -41t38 -93v-82q0 -8 -8 -8h-16q-8 0 -8 8v82q0 40 -28 69.5
t-68 31.5v-73q21 -6 34.5 -23t13.5 -39v-32q0 -7 -5 -11l-10 -11q-6 -5 -11 0l-12 12q-5 5 0 11l6 6v23q0 12 -7.5 22t-19.5 12q-15 2 -26 -7.5t-11 -24.5v-25l6 -6q5 -6 0 -11l-12 -12q-5 -5 -11 0l-10 11q-5 4 -5 11v29q0 23 13.5 41t34.5 24v69q-32 -11 -64 -11t-64 11
v-77q18 -6 29 -20.5t11 -33.5q0 -23 -16.5 -39.5t-39.5 -16.5t-39.5 16.5t-16.5 39.5q0 19 11 33.5t29 20.5v81q-40 -2 -68 -31.5t-28 -69.5v-82q0 -8 -8 -8h-16q-8 0 -8 8v82q0 54 38 93t92 41q16 0 42 -8t52 -8t52 8t42 8zM168 -8q0 10 -7 17t-17 7t-17 -7t-7 -17t7 -17
t17 -7t17 7t7 17z" />
    <glyph glyph-name="stethoscope" unicode="Stethoscope" 
d="M430 352q34 0 58 -23.5t24 -56.5q0 -29 -18 -51t-46 -28v-105q0 -63 -47 -107.5t-113 -44.5t-113 44.5t-47 107.5v8q-54 7 -91 47.5t-37 96.5v182q0 10 9 12l55 14q12 2 15 -9l2 -8q3 -12 -9 -14l-40 -11v-166q0 -47 33 -80t80 -32q46 0 78.5 33t32.5 80v165l-40 10
q-12 4 -9 15l2 8q3 11 15 9l55 -14q9 -2 9 -12v-182q0 -56 -37 -96.5t-91 -47.5v-8q0 -50 37.5 -85t90.5 -35t90.5 35t37.5 85v105q-27 6 -45.5 27.5t-18.5 49.5q0 33 22.5 57t55.5 25zM432 224q20 0 34 14t14 33.5t-14 34t-34 14.5t-34 -14.5t-14 -34t14 -33.5t34 -14z
M456 271.5q0 -9.5 -7 -16.5t-17 -7t-17 7t-7 16.5t7 16.5t17 7t17 -7t7 -16.5z" />
    <glyph glyph-name="suitcase" unicode="Suitcase" 
d="M464 320q20 0 34 -14t14 -34v-256q0 -20 -14 -34t-34 -14h-416q-20 0 -34 14t-14 34v256q0 20 14 34t34 14h112v48q0 20 14 34t34 14h96q20 0 34 -14t14 -34v-48h112zM192 368v-48h128v48q0 7 -4.5 11.5t-11.5 4.5h-96q-7 0 -11.5 -4.5t-4.5 -11.5zM96 0v288h-48
q-7 0 -11.5 -4.5t-4.5 -11.5v-256q0 -7 4.5 -11.5t11.5 -4.5h48zM384 0v288h-256v-288h256zM480 16v256q0 7 -4.5 11.5t-11.5 4.5h-48v-288h48q7 0 11.5 4.5t4.5 11.5z" />
    <glyph glyph-name="bell" unicode="Bell" horiz-adv-x="448" 
d="M224 -32q13 0 22.5 9.5t9.5 22.5h32q0 -26 -19 -45t-45 -19t-45 19t-19 45h32q0 -13 9.5 -22.5t22.5 -9.5zM433 113q23 -22 12 -51q-12 -30 -45 -30h-352q-33 0 -45 30q-11 29 12 51q25 24 37 54.5t12 94.5q0 59 41.5 103t102.5 49v18q0 7 4.5 11.5t11.5 4.5t11.5 -4.5
t4.5 -11.5v-18q61 -5 102.5 -49t41.5 -103q0 -64 12 -94.5t37 -54.5zM400 64q11 0 15 9.5t-4 16.5q-30 29 -44.5 65.5t-14.5 106.5q0 51 -37.5 86.5t-90.5 35.5t-90.5 -35.5t-37.5 -86.5q0 -70 -14.5 -106.5t-44.5 -65.5q-8 -7 -4 -16.5t15 -9.5h352z" />
    <glyph glyph-name="coffee" unicode="Coffee" horiz-adv-x="576" 
d="M518 0h-492q-19 0 -25 19q-4 13 5 13h532q10 0 5 -15q-7 -17 -25 -17zM576 289q0 -40 -28 -68.5t-68 -28.5h-32v-32q0 -40 -28 -68t-68 -28h-192q-40 0 -68 28t-28 68v212q0 12 12 12h403q40 0 68.5 -28t28.5 -67zM416 352h-320v-192q0 -26 19 -45t45 -19h192q26 0 45 19
t19 45v192zM544 288q0 26 -19 45t-45 19h-32v-128h32q26 0 45 19t19 45z" />
    <glyph glyph-name="hospital" unicode="Hospital" horiz-adv-x="448" 
d="M180 96h-40q-12 0 -12 12v40q0 12 12 12h40q12 0 12 -12v-40q0 -12 -12 -12zM268 96q-12 0 -12 12v40q0 12 12 12h40q12 0 12 -12v-40q0 -12 -12 -12h-40zM140 192q-12 0 -12 12v40q0 12 12 12h40q12 0 12 -12v-40q0 -12 -12 -12h-40zM268 192q-12 0 -12 12v40
q0 12 12 12h40q12 0 12 -12v-40q0 -12 -12 -12h-40zM448 -64h-448v20q0 12 12 12h20v395q0 9 7 15t17 6h88v40q0 10 7 17t17 7h112q10 0 17 -7t7 -17v-40h88q10 0 17 -6t7 -15v-395h20q12 0 12 -12v-20zM64 -32h128v84q0 12 12 12h40q12 0 12 -12v-84h128v384h-80v-40
q0 -10 -7 -17t-17 -7h-112q-10 0 -17 7t-7 17v40h-80v-384zM266 384h-26v26q0 6 -6 6h-20q-6 0 -6 -6v-26h-26q-6 0 -6 -6v-20q0 -6 6 -6h26v-26q0 -6 6 -6h20q6 0 6 6v26h26q6 0 6 6v20q0 6 -6 6z" />
    <glyph glyph-name="ambulance" unicode="Ambulance" horiz-adv-x="640" 
d="M296 256q8 0 8 -8v-48q0 -8 -8 -8h-56v-56q0 -8 -8 -8h-48q-8 0 -8 8v56h-56q-8 0 -8 8v48q0 8 8 8h56v56q0 8 8 8h48q8 0 8 -8v-56h56zM632 64q8 0 8 -8v-16q0 -8 -8 -8h-58q2 -8 2 -16q0 -33 -23.5 -56.5t-56.5 -23.5t-56.5 23.5t-23.5 56.5q0 8 2 16h-196q2 -8 2 -16
q0 -33 -23.5 -56.5t-56.5 -23.5t-56.5 23.5t-23.5 56.5q0 8 2 16h-17q-20 0 -34.5 13.5t-14.5 33.5v290q0 20 14.5 33.5t34.5 13.5h318q20 0 34.5 -13.5t14.5 -33.5v-49h44q27 0 45 -19l84 -84q19 -18 19 -45v-108h24zM144 -32q20 0 34 14t14 34t-14 34t-34 14t-34 -14
t-14 -34t14 -34t34 -14zM384 64v305q0 6 -5 10.5t-12 4.5h-318q-7 0 -12 -4.5t-5 -10.5v-290q0 -6 5 -10.5t12 -4.5h31q25 32 64 32t64 -32h176zM416 288v-96h152l-0.5 1t-0.5 2l-84 84q-10 9 -23 9h-44zM496 -32q20 0 34 14t14 34t-14 34t-34 14t-34 -14t-14 -34t14 -34
t34 -14zM576 64v96h-160v-96h16q25 32 64 32t64 -32h16z" />
    <glyph glyph-name="medkit" unicode="Medkit" 
d="M464 352q20 0 34 -14t14 -34v-288q0 -20 -14 -34t-34 -14h-416q-20 0 -34 14t-14 34v288q0 20 14 34t34 14h112v40q0 10 7 17t17 7h144q10 0 17 -7t7 -17v-40h112zM192 384v-32h128v32h-128zM384 320h-256v-320h256v320zM32 16q0 -7 4.5 -11.5t11.5 -4.5h48v320h-48
q-7 0 -11.5 -4.5t-4.5 -11.5v-288zM480 16v288q0 7 -4.5 11.5t-11.5 4.5h-48v-320h48q7 0 11.5 4.5t4.5 11.5zM352 176v-32q0 -12 -12 -12h-56v-56q0 -12 -12 -12h-32q-12 0 -12 12v56h-56q-12 0 -12 12v32q0 12 12 12h56v56q0 12 12 12h32q12 0 12 -12v-56h56q12 0 12 -12z
" />
    <glyph glyph-name="fighter-jet" unicode="Fighter&#x2d;Jet" horiz-adv-x="640" 
d="M527 252q4 -1 11 -2q21 -5 30.5 -7t24 -6.5t21 -8t14 -9t10 -12t2.5 -15.5q0 -24 -22 -34.5t-81 -23.5q-7 -1 -10 -2l-103 -11l-42 -17h-15l-84 -104q37 -3 37 -16q0 -7 -14 -11.5t-33 -4.5h-129v32h16v120h-2l-64 -72h-58l-28 28v68l-8 1v94l8 1v68l28 28h58l64 -72h2
v120h-16v32h129q19 0 33 -4.5t14 -11.5q0 -13 -37 -16l84 -104h15l42 -17zM522 164q40 8 60 14t23 8.5t3 5.5t-3 5.5t-23 8.5t-60 14l-106 12l-40 16h-24l-110 136h-50v-152h-48l-64 72h-30l-10 -9v-55h8v-16h42v-6l-58 -7v-38l58 -7v-6h-42v-16h-8v-55l10 -9h30l64 72h48
v-152h50l110 136h24l40 16z" />
    <glyph glyph-name="beer" unicode="Beer" horiz-adv-x="448" 
d="M384 352q26 0 45 -19t19 -45v-162q0 -40 -35 -58l-61 -30v-22q0 -20 -14 -34t-34 -14h-256q-20 0 -34 14t-14 34v352q0 20 14 34t34 14h256q20 0 34 -14t14 -34v-16h32zM320 16v352q0 7 -4.5 11.5t-11.5 4.5h-256q-7 0 -11.5 -4.5t-4.5 -11.5v-352q0 -7 4.5 -11.5
t11.5 -4.5h256q7 0 11.5 4.5t4.5 11.5zM416 126v162q0 13 -9.5 22.5t-22.5 9.5h-32v-246l46 23q18 9 18 29zM192 304v-224q0 -7 -4.5 -11.5t-11.5 -4.5t-11.5 4.5t-4.5 11.5v224q0 7 4.5 11.5t11.5 4.5t11.5 -4.5t4.5 -11.5zM128 304v-224q0 -7 -4.5 -11.5t-11.5 -4.5
t-11.5 4.5t-4.5 11.5v224q0 7 4.5 11.5t11.5 4.5t11.5 -4.5t4.5 -11.5zM256 304v-224q0 -7 -4.5 -11.5t-11.5 -4.5t-11.5 4.5t-4.5 11.5v224q0 7 4.5 11.5t11.5 4.5t11.5 -4.5t4.5 -11.5z" />
    <glyph glyph-name="h-square" unicode="H&#x2d;Square" horiz-adv-x="448" 
d="M400 416q20 0 34 -14t14 -34v-352q0 -20 -14 -34t-34 -14h-352q-20 0 -34 14t-14 34v352q0 20 14 34t34 14h352zM416 16v352q0 7 -4.5 11.5t-11.5 4.5h-352q-7 0 -11.5 -4.5t-4.5 -11.5v-352q0 -7 4.5 -11.5t11.5 -4.5h352q7 0 11.5 4.5t4.5 11.5zM336 308v-232
q0 -12 -12 -12h-8q-12 0 -12 12v100h-160v-100q0 -12 -12 -12h-8q-12 0 -12 12v232q0 12 12 12h8q12 0 12 -12v-100h160v100q0 12 12 12h8q12 0 12 -12z" />
    <glyph glyph-name="plus-square" unicode="Plus&#x2d;Square" horiz-adv-x="448" 
d="M400 384h-352q-7 0 -11.5 -4.5t-4.5 -11.5v-352q0 -7 4.5 -11.5t11.5 -4.5h352q7 0 11.5 4.5t4.5 11.5v352q0 7 -4.5 11.5t-11.5 4.5zM400 416q20 0 34 -14t14 -34v-352q0 -20 -14 -34t-34 -14h-352q-20 0 -34 14t-14 34v352q0 20 14 34t34 14h352zM340 210q12 0 12 -12
v-12q0 -12 -12 -12h-98v-98q0 -12 -12 -12h-12q-12 0 -12 12v98h-98q-12 0 -12 12v12q0 12 12 12h98v98q0 12 12 12h12q12 0 12 -12v-98h98z" />
    <glyph glyph-name="angle-double-left" unicode="Angle&#x2d;Double&#x2d;Left" horiz-adv-x="320" 
d="M153 200l118 116q8 9 17 0l7 -7q9 -8 0 -17l-102 -100l102 -100q8 -9 0 -17l-7 -7q-9 -9 -17 0l-118 116q-8 8 0 16zM25 184q-8 8 0 16l118 116q8 9 17 0l7 -7q8 -8 0 -17l-102 -100l102 -100q9 -9 0 -17l-7 -7q-9 -9 -17 0z" />
    <glyph glyph-name="angle-double-right" unicode="Angle&#x2d;Double&#x2d;Right" horiz-adv-x="320" 
d="M167 184l-118 -116q-8 -9 -17 0l-7 7q-9 8 0 17l102 100l-102 100q-8 9 0 17l7 7q9 9 17 0l118 -116q8 -8 0 -16zM295 200q8 -8 0 -16l-118 -116q-8 -9 -17 0l-7 7q-8 8 0 17l102 100l-102 100q-9 9 0 17l7 7q9 9 17 0z" />
    <glyph glyph-name="angle-double-up" unicode="Angle&#x2d;Double&#x2d;Up" horiz-adv-x="256" 
d="M136 199l116 -118q9 -8 0 -17l-7 -7q-8 -9 -17 0l-100 102l-100 -102q-9 -8 -17 0l-7 7q-9 9 0 17l116 118q8 8 16 0zM120 327q8 8 16 0l116 -118q9 -8 0 -17l-7 -7q-8 -8 -17 0l-100 102l-100 -102q-9 -9 -17 0l-7 7q-9 9 0 17z" />
    <glyph glyph-name="angle-double-down" unicode="Angle&#x2d;Double&#x2d;Down" horiz-adv-x="256" 
d="M120 185l-116 118q-9 8 0 17l7 7q8 9 17 0l100 -102l100 102q9 8 17 0l7 -7q9 -9 0 -17l-116 -118q-8 -8 -16 0zM136 57q-8 -8 -16 0l-116 118q-9 8 0 17l7 7q8 8 17 0l100 -102l100 102q9 9 17 0l7 -7q9 -9 0 -17z" />
    <glyph glyph-name="angle-left" unicode="Angle&#x2d;Left" horiz-adv-x="192" 
d="M25 200l118 116q8 9 17 0l7 -7q9 -8 0 -17l-102 -100l102 -100q8 -9 0 -17l-7 -7q-9 -9 -17 0l-118 116q-8 8 0 16z" />
    <glyph glyph-name="angle-right" unicode="Angle&#x2d;Right" horiz-adv-x="192" 
d="M167 184l-118 -116q-8 -9 -17 0l-7 7q-9 8 0 17l102 100l-102 100q-8 9 0 17l7 7q9 9 17 0l118 -116q8 -8 0 -16z" />
    <glyph glyph-name="angle-up" unicode="Angle&#x2d;Up" horiz-adv-x="256" 
d="M136 263l116 -118q9 -8 0 -17l-7 -7q-8 -9 -17 0l-100 102l-100 -102q-9 -8 -17 0l-7 7q-9 9 0 17l116 118q8 8 16 0z" />
    <glyph glyph-name="angle-down" unicode="Angle&#x2d;Down" horiz-adv-x="256" 
d="M120 121l-116 118q-9 8 0 17l7 7q8 9 17 0l100 -102l100 102q9 8 17 0l7 -7q9 -9 0 -17l-116 -118q-8 -8 -16 0z" />
    <glyph glyph-name="desktop" unicode="Desktop" horiz-adv-x="576" 
d="M528 448q20 0 34 -14t14 -34v-288q0 -20 -14 -34t-34 -14h-192l24 -96h72q7 0 11.5 -4.5t4.5 -11.5t-4.5 -11.5t-11.5 -4.5h-288q-7 0 -11.5 4.5t-4.5 11.5t4.5 11.5t11.5 4.5h72l24 96h-192q-20 0 -34 14t-14 34v288q0 20 14 34t34 14h480zM249 -32h78l-16 64h-46z
M544 112v288q0 7 -4.5 11.5t-11.5 4.5h-480q-7 0 -11.5 -4.5t-4.5 -11.5v-288q0 -7 4.5 -11.5t11.5 -4.5h480q7 0 11.5 4.5t4.5 11.5z" />
    <glyph glyph-name="laptop" unicode="Laptop" horiz-adv-x="640" 
d="M624 80q7 0 11.5 -4.5t4.5 -11.5v-48q0 -33 -23.5 -56.5t-56.5 -23.5h-480q-33 0 -56.5 23.5t-23.5 56.5v48q0 7 4.5 11.5t11.5 4.5h48v272q0 26 19 45t45 19h384q26 0 45 -19t19 -45v-272h48zM96 352v-272h153q6 0 8 -7q2 -11 11 -18t20 -7h64q11 0 20 7t11 18q2 7 8 7
h153v272q0 13 -9.5 22.5t-22.5 9.5h-384q-13 0 -22.5 -9.5t-9.5 -22.5zM608 16v32h-195q-5 -14 -17.5 -23t-27.5 -9h-96q-15 0 -27.5 9t-17.5 23h-195v-32q0 -20 14 -34t34 -14h480q20 0 34 14t14 34z" />
    <glyph glyph-name="tablet" unicode="Tablet" horiz-adv-x="448" 
d="M256 32q0 -13 -9.5 -22.5t-22.5 -9.5t-22.5 9.5t-9.5 22.5q0 15 9 23.5t23 8.5q13 0 22.5 -9.5t9.5 -22.5zM448 400v-416q0 -20 -14 -34t-34 -14h-352q-20 0 -34 14t-14 34v416q0 20 14 34t34 14h352q20 0 34 -14t14 -34zM416 400q0 7 -4.5 11.5t-11.5 4.5h-352
q-7 0 -11.5 -4.5t-4.5 -11.5v-416q0 -7 4.5 -11.5t11.5 -4.5h352q7 0 11.5 4.5t4.5 11.5v416z" />
    <glyph glyph-name="mobile" unicode="Mobile" horiz-adv-x="320" 
d="M192 32q0 -13 -9.5 -22.5t-22.5 -9.5t-22.5 9.5t-9.5 22.5t9.5 22.5t22.5 9.5t22.5 -9.5t9.5 -22.5zM320 400v-416q0 -20 -14 -34t-34 -14h-224q-20 0 -34 14t-14 34v416q0 20 14 34t34 14h224q20 0 34 -14t14 -34zM288 400q0 7 -4.5 11.5t-11.5 4.5h-224
q-7 0 -11.5 -4.5t-4.5 -11.5v-416q0 -7 4.5 -11.5t11.5 -4.5h224q7 0 11.5 4.5t4.5 11.5v416z" />
    <glyph glyph-name="quote-left" unicode="Quote&#x2d;Left" 
d="M448 224q26 0 45 -19t19 -45v-128q0 -26 -19 -45t-45 -19h-112q-26 0 -45 19t-19 45v216q0 69 49.5 118.5t118.5 49.5h16q17 0 28.5 -11.5t11.5 -28.5v-32q0 -17 -11.5 -28.5t-28.5 -11.5h-16q-23 0 -39.5 -16.5t-16.5 -39.5v-24h64zM480 32v128q0 13 -9.5 22.5
t-22.5 9.5h-96v56q0 36 26 62t62 26h16q8 0 8 8v32q0 8 -8 8h-16q-56 0 -96 -40t-40 -96v-216q0 -13 9.5 -22.5t22.5 -9.5h112q13 0 22.5 9.5t9.5 22.5zM176 224q26 0 45 -19t19 -45v-128q0 -26 -19 -45t-45 -19h-112q-26 0 -45 19t-19 45v216q0 69 49.5 118.5t118.5 49.5
h16q17 0 28.5 -11.5t11.5 -28.5v-32q0 -17 -11.5 -28.5t-28.5 -11.5h-16q-23 0 -39.5 -16.5t-16.5 -39.5v-24h64zM208 32v128q0 13 -9.5 22.5t-22.5 9.5h-96v56q0 36 26 62t62 26h16q8 0 8 8v32q0 8 -8 8h-16q-56 0 -96 -40t-40 -96v-216q0 -13 9.5 -22.5t22.5 -9.5h112
q13 0 22.5 9.5t9.5 22.5z" />
    <glyph glyph-name="quote-right" unicode="Quote&#x2d;Right" 
d="M176 416q26 0 45 -19t19 -45v-216q0 -69 -49.5 -118.5t-118.5 -49.5h-16q-17 0 -28.5 11.5t-11.5 28.5v32q0 17 11.5 28.5t28.5 11.5h16q23 0 39.5 16.5t16.5 39.5v24h-64q-26 0 -45 19t-19 45v128q0 26 19 45t45 19h112zM208 136v216q0 13 -9.5 22.5t-22.5 9.5h-112
q-13 0 -22.5 -9.5t-9.5 -22.5v-128q0 -13 9.5 -22.5t22.5 -9.5h96v-56q0 -36 -26 -62t-62 -26h-16q-8 0 -8 -8v-32q0 -8 8 -8h16q56 0 96 40t40 96zM448 416q26 0 45 -19t19 -45v-216q0 -69 -49.5 -118.5t-118.5 -49.5h-16q-17 0 -28.5 11.5t-11.5 28.5v32q0 17 11.5 28.5
t28.5 11.5h16q23 0 39.5 16.5t16.5 39.5v24h-64q-26 0 -45 19t-19 45v128q0 26 19 45t45 19h112zM480 136v216q0 13 -9.5 22.5t-22.5 9.5h-112q-13 0 -22.5 -9.5t-9.5 -22.5v-128q0 -13 9.5 -22.5t22.5 -9.5h96v-56q0 -36 -26 -62t-62 -26h-16q-8 0 -8 -8v-32q0 -8 8 -8h16
q56 0 96 40t40 96z" />
    <glyph glyph-name="spinner" unicode="Spinner" 
d="M288 416q0 -13 -9.5 -22.5t-22.5 -9.5t-22.5 9.5t-9.5 22.5t9.5 22.5t22.5 9.5t22.5 -9.5t9.5 -22.5zM256 0q13 0 22.5 -9.5t9.5 -22.5t-9.5 -22.5t-22.5 -9.5t-22.5 9.5t-9.5 22.5t9.5 22.5t22.5 9.5zM512 192q0 -13 -9.5 -22.5t-22.5 -9.5t-22.5 9.5t-9.5 22.5
t9.5 22.5t22.5 9.5t22.5 -9.5t9.5 -22.5zM64 192q0 -13 -9.5 -22.5t-22.5 -9.5t-22.5 9.5t-9.5 22.5t9.5 22.5t22.5 9.5t22.5 -9.5t9.5 -22.5zM97.5 66q13.5 0 23 -9.5t9.5 -23t-9.5 -22.5t-23 -9t-22.5 9t-9 22.5t9 23t22.5 9.5zM414.5 66q13.5 0 22.5 -9.5t9 -23t-9 -22.5
t-22.5 -9t-23 9t-9.5 22.5t9.5 23t23 9.5zM97.5 382q13.5 0 23 -9t9.5 -22.5t-9.5 -23t-23 -9.5t-22.5 9.5t-9 23t9 22.5t22.5 9z" />
    <glyph glyph-name="circle" unicode="Circle" 
d="M256 440q103 0 175.5 -72.5t72.5 -175.5t-72.5 -175.5t-175.5 -72.5t-175.5 72.5t-72.5 175.5t72.5 175.5t175.5 72.5zM472 192q0 90 -63.5 153t-152.5 63q-90 0 -153 -63.5t-63 -152.5q0 -90 63.5 -153t152.5 -63q90 0 153 63.5t63 152.5z" />
    <glyph glyph-name="smile" unicode="Smile" horiz-adv-x="496" 
d="M248 440q103 0 175.5 -72.5t72.5 -175.5t-72.5 -175.5t-175.5 -72.5t-175.5 72.5t-72.5 175.5t72.5 175.5t175.5 72.5zM248 -24q89 0 152.5 63.5t63.5 152.5t-63.5 152.5t-152.5 63.5t-152.5 -63.5t-63.5 -152.5t63.5 -152.5t152.5 -63.5zM338 122q10 12 22.5 2t2.5 -22
q-45 -54 -115 -54t-115 54q-10 12 2 22.5t23 -2.5q35 -42 90 -42t90 42zM168 208q-13 0 -22.5 9.5t-9.5 22.5t9.5 22.5t22.5 9.5t22.5 -9.5t9.5 -22.5t-9.5 -22.5t-22.5 -9.5zM328 208q-13 0 -22.5 9.5t-9.5 22.5t9.5 22.5t22.5 9.5t22.5 -9.5t9.5 -22.5t-9.5 -22.5
t-22.5 -9.5z" />
    <glyph glyph-name="frown" unicode="Frown" horiz-adv-x="496" 
d="M248 440q103 0 175.5 -72.5t72.5 -175.5t-72.5 -175.5t-175.5 -72.5t-175.5 72.5t-72.5 175.5t72.5 175.5t175.5 72.5zM248 -24q89 0 152.5 63.5t63.5 152.5t-63.5 152.5t-152.5 63.5t-152.5 -63.5t-63.5 -152.5t63.5 -152.5t152.5 -63.5zM248 128q70 0 115 -54
q10 -12 -2 -22q-6 -5 -12.5 -4t-10.5 6q-35 42 -90 42t-90 -42q-10 -13 -22.5 -2.5t-2.5 22.5q45 54 115 54zM168 208q-13 0 -22.5 9.5t-9.5 22.5t9.5 22.5t22.5 9.5t22.5 -9.5t9.5 -22.5t-9.5 -22.5t-22.5 -9.5zM328 208q-13 0 -22.5 9.5t-9.5 22.5t9.5 22.5t22.5 9.5
t22.5 -9.5t9.5 -22.5t-9.5 -22.5t-22.5 -9.5z" />
    <glyph glyph-name="meh" unicode="Meh" horiz-adv-x="496" 
d="M248 440q103 0 175.5 -72.5t72.5 -175.5t-72.5 -175.5t-175.5 -72.5t-175.5 72.5t-72.5 175.5t72.5 175.5t175.5 72.5zM248 -24q89 0 152.5 63.5t63.5 152.5t-63.5 152.5t-152.5 63.5t-152.5 -63.5t-63.5 -152.5t63.5 -152.5t152.5 -63.5zM168 208q-13 0 -22.5 9.5
t-9.5 22.5t9.5 22.5t22.5 9.5t22.5 -9.5t9.5 -22.5t-9.5 -22.5t-22.5 -9.5zM328 272q13 0 22.5 -9.5t9.5 -22.5t-9.5 -22.5t-22.5 -9.5t-22.5 9.5t-9.5 22.5t9.5 22.5t22.5 9.5zM344 112q7 0 11.5 -4.5t4.5 -11.5t-4.5 -11.5t-11.5 -4.5h-192q-7 0 -11.5 4.5t-4.5 11.5
t4.5 11.5t11.5 4.5h192z" />
    <glyph glyph-name="gamepad" unicode="Gamepad" horiz-adv-x="640" 
d="M472 328h-304q-56 0 -96 -40t-40 -96t40 -96t96 -40q54 0 97 40h110q43 -40 97 -40q56 0 96 40t40 96t-40 96t-96 40zM472 360q70 0 119 -49t49 -119t-49 -119t-119 -49q-62 0 -109 40h-86q-47 -40 -109 -40q-70 0 -119 49t-49 119t49 119t119 49h304zM512 260
q15 0 25.5 -10.5t10.5 -25.5t-10.5 -25.5t-25.5 -10.5t-25.5 10.5t-10.5 25.5t10.5 25.5t25.5 10.5zM448 196q15 0 25.5 -10.5t10.5 -25.5t-10.5 -25.5t-25.5 -10.5t-25.5 10.5t-10.5 25.5t10.5 25.5t25.5 10.5zM180 212h46q6 0 6 -6v-28q0 -6 -6 -6h-46v-46q0 -6 -6 -6h-28
q-6 0 -6 6v46h-46q-6 0 -6 6v28q0 6 6 6h46v46q0 6 6 6h28q6 0 6 -6v-46z" />
    <glyph glyph-name="keyboard" unicode="Keyboard" horiz-adv-x="576" 
d="M528 384q20 0 34 -14t14 -34v-288q0 -20 -14 -34t-34 -14h-480q-20 0 -34 14t-14 34v288q0 20 14 34t34 14h480zM544 48v288q0 7 -4.5 11.5t-11.5 4.5h-480q-7 0 -11.5 -4.5t-4.5 -11.5v-288q0 -7 4.5 -11.5t11.5 -4.5h480q7 0 11.5 4.5t4.5 11.5zM168 180q0 -12 -12 -12
h-24q-12 0 -12 12v24q0 12 12 12h24q12 0 12 -12v-24zM264 180q0 -12 -12 -12h-24q-12 0 -12 12v24q0 12 12 12h24q12 0 12 -12v-24zM360 180q0 -12 -12 -12h-24q-12 0 -12 12v24q0 12 12 12h24q12 0 12 -12v-24zM456 180q0 -12 -12 -12h-24q-12 0 -12 12v24q0 12 12 12h24
q12 0 12 -12v-24zM120 100q0 -12 -12 -12h-24q-12 0 -12 12v24q0 12 12 12h24q12 0 12 -12v-24zM504 100q0 -12 -12 -12h-24q-12 0 -12 12v24q0 12 12 12h24q12 0 12 -12v-24zM120 260q0 -12 -12 -12h-24q-12 0 -12 12v24q0 12 12 12h24q12 0 12 -12v-24zM216 260
q0 -12 -12 -12h-24q-12 0 -12 12v24q0 12 12 12h24q12 0 12 -12v-24zM312 260q0 -12 -12 -12h-24q-12 0 -12 12v24q0 12 12 12h24q12 0 12 -12v-24zM408 260q0 -12 -12 -12h-24q-12 0 -12 12v24q0 12 12 12h24q12 0 12 -12v-24zM504 260q0 -12 -12 -12h-24q-12 0 -12 12v24
q0 12 12 12h24q12 0 12 -12v-24zM408 108q0 -12 -12 -12h-216q-12 0 -12 12v8q0 12 12 12h216q12 0 12 -12v-8z" />
    <glyph glyph-name="flag-checkered" unicode="Flag&#x2d;Checkered" 
d="M464 352v-71q-48 -19 -77 -24v73q38 6 77 22zM464 139q-35 -22 -77 -26v72q46 6 77 25v-71zM80 262v71q35 22 77 26v-72q-48 -7 -77 -25zM80 128v71q38 13 77 17v-72q-43 -4 -77 -16zM310 191v68q40 -8 77 -2v-72q-36 -5 -77 6v-69q-65 20 -76 22v70q15 -4 42.5 -12.5
t33.5 -10.5zM478 410q12 6 23 -1t11 -21v-261q0 -13 -10 -20q-64 -43 -130 -43q-37 0 -91.5 17.5t-80.5 17.5q-73 0 -136 -29v-122q0 -12 -12 -12h-8q-12 0 -12 12v407q-15 5 -24 18t-8 30q1 18 14.5 31t31.5 14q22 1 37.5 -15.5t12.5 -38.5q36 14 76 14q37 0 91.5 -17.5
t80.5 -17.5q54 0 134 37zM48 380q8 0 14 6t6 14t-6 14t-14 6t-14 -6t-6 -14t6 -14t14 -6zM480 131v245q-73 -35 -136 -35q-32 0 -86 17.5t-86 17.5q-60 0 -108 -35v-236q55 26 136 26q32 0 86 -17.5t86 -17.5q60 0 108 35zM310 328v-69q-15 4 -41 12t-35 11v68
q67 -20 76 -22zM157 287q37 5 77 -5v-69q-35 7 -77 3v71z" />
    <glyph glyph-name="terminal" unicode="Terminal" horiz-adv-x="640" 
d="M34 412l212 -212q8 -8 0 -16l-212 -212q-8 -8 -16 0l-8 8q-8 8 0 17l196 195l-196 195q-8 9 0 17l8 8q8 8 16 0zM640 -20q0 -12 -12 -12h-328q-12 0 -12 12v10q0 12 12 12h328q12 0 12 -12v-10z" />
    <glyph glyph-name="code" unicode="Code" horiz-adv-x="576" 
d="M228 -64l-24 7q-6 2 -5 8l141 493q2 5 8 4l24 -7q6 -2 5 -8l-141 -493q-2 -5 -8 -4zM153 62q-3 -4 -7 -1l-144 127q-5 4 0 8l144 127q4 3 7 -1l18 -20q4 -4 0 -8l-121 -102l121 -102q4 -4 0 -8zM430 61q-4 -3 -7 1l-18 20q-4 4 0 8l121 102l-121 102q-4 4 0 8l18 20
q3 4 7 1l144 -127q5 -4 0 -8z" />
    <glyph glyph-name="reply-all" unicode="Reply&#x2d;All" horiz-adv-x="576" 
d="M105 201q-9 10 -9 23t9 23l160 160q15 15 35 6.5t20 -29.5v-73q40 -1 71.5 -5t68 -16t60.5 -31t40 -52t16 -77q0 -94 -85 -156q-18 -13 -37 0t-13 35q21 73 -4 98t-117 28v-71q0 -21 -20 -29.5t-35 6.5zM128 224l160 -160v104q40 0 67.5 -2.5t53.5 -9t41 -18.5t24.5 -30
t8.5 -45t-11 -63q72 53 72 130q0 38 -14.5 66t-37.5 43.5t-58.5 25t-68.5 12t-77 3.5v104zM9 247l160 160q11 9 23.5 9t22.5 -9l-183 -183l183 -183q-10 -9 -22.5 -9t-23.5 9l-160 160q-9 10 -9 23t9 23z" />
    <glyph glyph-name="location-arrow" unicode="Location&#x2d;Arrow" 
d="M462 448q25 0 40.5 -22t5.5 -45l-191 -416q-14 -29 -44 -29q-20 0 -34.5 13t-14.5 35v176h-176q-25 0 -38.5 18.5t-8.5 41t28 33.5l416 191q8 4 17 4zM479 394q3 6 -2 13q-6 9 -15 9q-3 0 -5 -1l-415 -191q-13 -6 -10 -20q3 -12 16 -12h208v-208q0 -16 17 -16q10 0 15 10
z" />
    <glyph glyph-name="crop" unicode="Crop" 
d="M488 128q10 0 17 -7t7 -17v-48q0 -10 -7 -17t-17 -7h-72v-72q0 -10 -7 -17t-17 -7h-48q-10 0 -17 7t-7 17v72h-192q-13 0 -22.5 9.5t-9.5 22.5v192h-72q-10 0 -17 7t-7 17v48q0 10 7 17t17 7h72v72q0 10 7 17t17 7h48q10 0 17 -7t7 -17v-72h201l94 94q6 5 11 0l12 -12
q5 -5 0 -11l-94 -94v-201h72zM96 288v32h-64v-32h64zM192 320v-32h137l32 32h-169zM297 256h-105v-105zM320 64v32h-160v320h-32v-352h192zM215 128h105v105zM352 -32h32v329l-32 -32v-297zM480 64v32h-64v-32h64z" />
    <glyph glyph-name="code-branch" unicode="Code&#x2d;Branch" horiz-adv-x="384" 
d="M384 304q0 -28 -17.5 -50t-44.5 -28q-2 -37 -20 -61q-12 -15 -33 -24t-36 -11t-44 -5q-51 -5 -69 -14q-13 -6 -19 -18q26 -7 42.5 -28.5t16.5 -48.5q0 -33 -23.5 -56.5t-56.5 -23.5t-56.5 23.5t-23.5 56.5q0 29 18 51t46 27v196q-28 5 -46 27t-18 51q0 33 23.5 56.5
t56.5 23.5t56.5 -23.5t23.5 -56.5q0 -29 -18 -51t-46 -27v-156q4 3 10 6q23 11 80 17q25 2 38 4t29 8t24 16q11 15 13 40q-29 6 -47.5 28t-18.5 51q0 33 23.5 56.5t56.5 23.5t56.5 -23.5t23.5 -56.5zM32 368q0 -20 14 -34t34 -14t34 14t14 34t-14 34t-34 14t-34 -14t-14 -34
zM128 16q0 20 -14 34t-34 14t-34 -14t-14 -34t14 -34t34 -14t34 14t14 34zM316 258q16 4 26 16.5t10 29.5q0 20 -14 34t-34 14t-34 -14t-14 -34t14 -34t34 -14z" />
    <glyph glyph-name="unlink" unicode="Unlink" 
d="M208 311q-9 8 0 17l82 82q38 38 92 38t92 -38t38 -92t-38 -92l-82 -82q-9 -9 -17 0l-9 8q-8 9 0 17l82 83q28 27 28 66t-27.5 66.5t-66.5 27.5t-66 -28l-83 -82q-8 -8 -17 0zM196 -1l83 83q8 8 17 0l8 -9q9 -8 0 -17l-82 -82q-38 -38 -92 -38t-92 38t-38 92t38 92l82 82
q9 9 17 0l9 -8q8 -9 0 -17l-82 -83q-28 -27 -28 -66t27.5 -66.5t66.5 -27.5t66 27zM12 444q8 9 17 0l479 -479q9 -9 0 -17l-8 -8q-8 -9 -17 0l-479 479q-9 9 0 17z" />
    <glyph glyph-name="question" unicode="Question" horiz-adv-x="384" 
d="M200 448q69 0 123.5 -47t54.5 -113q0 -27 -7.5 -48.5t-21.5 -36.5t-26.5 -24t-28.5 -18t-20 -12v-5q0 -25 -20 -39q34 -29 34 -73q0 -40 -28 -68t-68 -28t-68 28t-28 68q0 44 34 73q-20 14 -20 39v14q0 28 11 48.5t27.5 31t32.5 17.5t27 12.5t11 12.5q0 8 -8.5 13
t-16.5 5q-13 0 -21.5 -5.5t-24.5 -26.5q-12 -15 -31.5 -17.5t-35.5 9.5l-42 32q-15 11 -18 30t7 35q63 93 172 93zM192 -32q26 0 45 19t19 45t-19 45t-45 19t-45 -19t-19 -45t19 -45t45 -19zM242 154q0 10 11 18.5t26 17t30.5 20t26 31.5t10.5 47q0 53 -45 90.5t-101 37.5
q-92 0 -145 -79q-9 -13 3 -22l42 -32q13 -9 23 3q19 24 33 34t38 10q21 0 39 -14t18 -36q0 -18 -11 -29t-27 -17.5l-32.5 -13.5t-27.5 -22.5t-11 -39.5v-14q0 -7 4.5 -11.5t11.5 -4.5h68q7 0 11.5 4.5t4.5 11.5v10z" />
    <glyph glyph-name="info" unicode="Info" horiz-adv-x="256" 
d="M208 79q17 -3 28.5 -16t11.5 -31v-48q0 -20 -14 -34t-34 -14h-144q-20 0 -34 14t-14 34v48q0 18 11.5 31t28.5 16v66q-17 3 -28.5 16t-11.5 31v48q0 20 14 34t34 14h1q-25 27 -25 64q0 40 28 68t68 28t68 -28t28 -68q0 -45 -35 -74q19 -14 19 -38v-161zM128 416
q-27 0 -45.5 -18.5t-18.5 -45.5t18.5 -45.5t45.5 -18.5t45.5 18.5t18.5 45.5t-18.5 45.5t-45.5 18.5zM216 -16v48q0 7 -4.5 11.5t-11.5 4.5h-24v192q0 7 -4.5 11.5t-11.5 4.5h-104q-7 0 -11.5 -4.5t-4.5 -11.5v-48q0 -7 4.5 -11.5t11.5 -4.5h24v-128h-24q-7 0 -11.5 -4.5
t-4.5 -11.5v-48q0 -7 4.5 -11.5t11.5 -4.5h144q7 0 11.5 4.5t4.5 11.5z" />
    <glyph glyph-name="exclamation" unicode="Exclamation" horiz-adv-x="192" 
d="M139 416h-86q-5 0 -9 -4t-3 -9l14 -264q1 -11 12 -11h58q11 0 12 11l14 264q1 5 -3 9t-9 4zM96 96q-26 0 -45 -19t-19 -45t19 -45t45 -19t45 19t19 45t-19 45t-45 19zM139 448q19 0 32 -14t12 -32l-14 -264q-1 -18 -14 -30q37 -29 37 -76q0 -40 -28 -68t-68 -28t-68 28
t-28 68q0 47 37 76q-13 12 -14 30l-14 264q-1 18 12 32t32 14h86z" />
    <glyph glyph-name="superscript" unicode="Superscript" 
d="M344 384q8 0 8 -8v-16q0 -8 -8 -8h-47l-102 -160l102 -160h47q8 0 8 -8v-16q0 -8 -8 -8h-56q-9 0 -13 7l-99 155l-98 -155q-5 -7 -14 -7h-56q-8 0 -8 8v16q0 8 8 8h47l102 160l-102 160h-47q-8 0 -8 8v16q0 8 8 8h56q9 0 14 -7l98 -155l99 155q4 7 13 7h56zM504 256
q8 0 8 -8v-16q0 -8 -8 -8h-112q-8 0 -8 8v16q0 8 8 8h40v128h-16q-7 0 -11.5 4.5t-4.5 11.5q0 4 2 7l16 32q4 9 14 9h16q7 0 11.5 -4.5t4.5 -11.5v-176h40z" />
    <glyph glyph-name="subscript" unicode="Subscript" 
d="M344 384q8 0 8 -8v-16q0 -8 -8 -8h-47l-102 -160l102 -160h47q8 0 8 -8v-16q0 -8 -8 -8h-56q-9 0 -13 7l-99 155l-98 -155q-5 -7 -14 -7h-56q-8 0 -8 8v16q0 8 8 8h47l102 160l-102 160h-47q-8 0 -8 8v16q0 8 8 8h56q9 0 14 -7l98 -155l99 155q4 7 13 7h56zM504 -32
q8 0 8 -8v-16q0 -8 -8 -8h-112q-8 0 -8 8v16q0 8 8 8h40v128h-16q-7 0 -11.5 4.5t-4.5 11.5q0 4 2 7l16 32q4 9 14 9h16q7 0 11.5 -4.5t4.5 -11.5v-176h40z" />
    <glyph glyph-name="eraser" unicode="Eraser" 
d="M498 174l-174 -174h176q12 0 12 -12v-8q0 -12 -12 -12h-356q-20 0 -34 14l-96 96q-14 14 -14 34t14 34l256 256q14 14 34 14t34 -14l160 -160q14 -14 14 -34t-14 -34zM293 379l-117 -116l183 -183l116 117q5 4 5 11t-5 11l-160 160q-4 5 -11 5t-11 -5zM144 0h128
q7 0 11 5l53 52l-183 183l-116 -117q-5 -4 -5 -11t5 -11l96 -96q4 -5 11 -5z" />
    <glyph glyph-name="puzzle-piece" unicode="Pu&#x7a;&#x7a;le&#x2d;Piece" horiz-adv-x="576" 
d="M507 192q31 0 50 -23.5t19 -56.5t-19 -57.5t-49 -24.5q-14 0 -30.5 7.5t-26 15t-20.5 11t-15 -4.5q-18 -23 7 -112q-26 0 -72 -5t-72.5 -3.5t-42.5 15.5q-14 12 -14 33q0 22 17 43t17 34q0 12 -11.5 22t-37.5 10q-47 0 -47 -32q0 -17 16 -38.5t16 -35.5q0 -54 -86 -54
q-45 0 -106 15v345q124 -30 154 -5q8 4 5.5 13.5t-9 17t-13.5 24t-7 33.5q0 31 25 50t60 19q32 0 53.5 -18.5t21.5 -48.5q0 -18 -11.5 -37.5l-19 -31.5t-0.5 -18q28 -23 164 2q-24 -106 -4 -132q4 -7 13 -3.5t17 10.5t24 14t34 7zM508 62q13 0 24.5 13t11.5 37q0 20 -10 34
t-27 14q-18 0 -41 -16t-37 -16q-26 0 -38.5 21.5t-12 50t3.5 57.5q-158 -22 -158 43q0 21 17 44t17 37q0 18 -13 26.5t-30 8.5q-21 0 -37 -10t-16 -27t15 -40t15 -36q0 -23 -15.5 -36.5t-41.5 -16t-50.5 -1t-52.5 6.5v-280q16 -3 35 -5t41.5 -3t37 4.5t14.5 17.5q0 4 -9 16
q-35 47 -17.5 84.5t73.5 37.5q36 0 58.5 -18t22.5 -46q0 -15 -7.5 -30t-15 -23.5t-11.5 -18.5t3 -14q5 -5 16 -7t26 -1t28 2t30.5 3.5t24.5 2.5q-4 28 -5 54t12 45t38 19q21 0 44 -17t37 -17z" />
    <glyph glyph-name="microphone" unicode="Microphone" horiz-adv-x="320" 
d="M160 96q-40 0 -68 28t-28 68v160q0 40 28 68t68 28t68 -28t28 -68v-160q0 -40 -28 -68t-68 -28zM96 352v-160q0 -26 19 -45t45 -19t45 19t19 45v160q0 26 -19 45t-45 19t-45 -19t-19 -45zM312 256q8 0 8 -8v-56q0 -62 -41.5 -107.5t-102.5 -51.5v-65h72q8 0 8 -8v-16
q0 -8 -8 -8h-176q-8 0 -8 8v16q0 8 8 8h72v65q-61 6 -102.5 54t-41.5 111v50q0 8 8 8h16q8 0 8 -8v-51q0 -52 34.5 -90.5t84.5 -42.5q56 -3 96.5 35t40.5 93v56q0 8 8 8h16z" />
    <glyph glyph-name="microphone-slash" unicode="Microphone&#x2d;Slash" horiz-adv-x="640" 
d="M256 352v-48l-32 25v23q0 40 28 68t68 28t68 -28t28 -68v-160q0 -4 -1 -13l-31 24v149q0 26 -19 45t-45 19t-45 -19t-19 -45zM480 192q0 -29 -11 -57l-27 22q6 19 6 35v56q0 8 8 8h16q8 0 8 -8v-56zM408 -32q8 0 8 -8v-16q0 -8 -8 -8h-176q-8 0 -8 8v16q0 8 8 8h72v65
q-61 7 -102.5 54.5t-41.5 110.5v50q0 4 4 6l28 -22v-36q0 -51 34.5 -89.5t84.5 -42.5q38 -2 72 17l27 -21q-35 -23 -74 -27v-65h72zM320 96q-40 0 -68 28t-28 68v14l33 -26q4 -22 22 -37t41 -15h3l33 -25q-18 -7 -36 -7zM637 -37q6 -5 1 -11l-10 -13q-5 -6 -11 -1l-614 483
q-6 5 -1 11l10 13q5 6 11 1z" />
    <glyph glyph-name="shield" unicode="Shield" 
d="M466 364q14 -5 22 -17t8 -27q0 -78 -22 -146.5t-57 -114t-71 -75.5t-72 -44q-18 -8 -36 0q-42 17 -80.5 50.5t-70.5 81t-51.5 112.5t-19.5 136q0 15 8 27t22 17l192 80q8 4 18 4t18 -4zM262 -31q80 32 141 129t61 222q0 11 -10 15l-192 80q-6 2 -12 0l-192 -80
q-10 -4 -10 -15q0 -125 61 -222t141 -129q6 -2 12 0z" />
    <glyph glyph-name="calendar" unicode="Calendar" horiz-adv-x="448" 
d="M400 384q20 0 34 -14t14 -34v-352q0 -20 -14 -34t-34 -14h-352q-20 0 -34 14t-14 34v352q0 20 14 34t34 14h48v52q0 12 12 12h8q12 0 12 -12v-52h192v52q0 12 12 12h8q12 0 12 -12v-52h48zM48 352q-7 0 -11.5 -4.5t-4.5 -11.5v-48h384v48q0 7 -4.5 11.5t-11.5 4.5h-352z
M400 -32q7 0 11.5 4.5t4.5 11.5v272h-384v-272q0 -7 4.5 -11.5t11.5 -4.5h352z" />
    <glyph glyph-name="fire-extinguisher" unicode="Fire&#x2d;Extinguisher" horiz-adv-x="448" 
d="M430 416q7 1 12.5 -4t5.5 -12v-96q0 -7 -5.5 -12t-12.5 -4l-160 24q-14 2 -14 24h-48v-33q34 -6 57 -33t23 -62v-248q0 -10 -7 -17t-17 -7h-144q-10 0 -17 7t-7 17v247q0 35 23 62.5t57 33.5v33h-20.5h-21.5t-19.5 -1.5t-20.5 -4l-17.5 -7.5t-18 -12.5t-14 -18.5
t-13.5 -26q-3 -6 -9 -8.5t-12 0t-8.5 8.5t-0.5 12q29 72 94 86q-15 28 1 56t48 28q31 0 47.5 -26t3.5 -54h61q0 22 14 24zM256 208q0 26 -19 45t-45 19q-27 0 -45.5 -19t-18.5 -46v-239h128v240zM144 416q-10 0 -17 -7t-7 -17t7 -17t17 -7t17 7t7 17t-7 17t-17 7zM416 323
v58l-128 -19v-20z" />
    <glyph glyph-name="rocket" unicode="Rocket" 
d="M505 429q7 -33 7 -84q0 -72 -34 -123t-94 -90v-101q0 -12 -8 -25t-19 -18l-98 -49q-5 -3 -11 -3q-10 0 -17 7t-7 17v93l-21 -11q-7 -3 -14 -3q-14 0 -23 9l-54 54q-9 9 -9 23q0 7 3 14l11 21h-93q-10 0 -17 7t-7 17q0 6 3 11l49 99q5 10 18 18t25 8h101q39 61 89.5 94.5
t123.5 33.5q51 0 84 -7q10 -2 12 -12zM128 192h4l48 96h-85q-10 0 -14 -9l-44 -87h91zM352 31v85l-96 -47v-96l87 44q9 4 9 14zM366 159q59 38 86.5 82.5t27.5 103.5q0 42 -4 67q-25 4 -67 4q-59 0 -103.5 -27.5t-82.5 -85.5l-88 -179l54 -53zM368 368q26 0 45 -19t19 -45
t-19 -45t-45 -19t-45 19t-19 45t19 45t45 19zM368 272q13 0 22.5 9.5t9.5 22.5t-9.5 22.5t-22.5 9.5t-22.5 -9.5t-9.5 -22.5t9.5 -22.5t22.5 -9.5z" />
    <glyph glyph-name="chevron-circle-left" unicode="Chevron&#x2d;Circle&#x2d;Left" 
d="M504 192q0 -103 -72.5 -175.5t-175.5 -72.5t-175.5 72.5t-72.5 175.5t72.5 175.5t175.5 72.5t175.5 -72.5t72.5 -175.5zM256 -24q90 0 153 63.5t63 152.5q0 90 -63.5 153t-152.5 63q-90 0 -153 -63.5t-63 -152.5q0 -90 63.5 -153t152.5 -63zM169 200l115 116q9 8 18 0
l7 -8q8 -8 0 -17l-100 -99l99 -100q9 -8 0 -16l-7 -8q-8 -8 -17 0l-115 115q-8 9 0 17z" />
    <glyph glyph-name="chevron-circle-right" unicode="Chevron&#x2d;Circle&#x2d;Right" 
d="M8 192q0 103 72.5 175.5t175.5 72.5t175.5 -72.5t72.5 -175.5t-72.5 -175.5t-175.5 -72.5t-175.5 72.5t-72.5 175.5zM256 408q-90 0 -153 -63.5t-63 -152.5q0 -90 63.5 -153t152.5 -63q90 0 153 63.5t63 152.5q0 90 -63.5 153t-152.5 63zM343 184l-115 -116q-9 -8 -18 0
l-7 8q-8 8 0 17l100 99l-99 100q-9 8 0 16l7 8q8 8 17 0l115 -115q8 -9 0 -17z" />
    <glyph glyph-name="chevron-circle-up" unicode="Chevron&#x2d;Circle&#x2d;Up" 
d="M256 -56q-103 0 -175.5 72.5t-72.5 175.5t72.5 175.5t175.5 72.5t175.5 -72.5t72.5 -175.5t-72.5 -175.5t-175.5 -72.5zM40 192q0 -90 63.5 -153t152.5 -63q90 0 153 63.5t63 152.5q0 90 -63.5 153t-152.5 63q-90 0 -153 -63.5t-63 -152.5zM264 279l116 -115q8 -9 0 -18
l-8 -7q-8 -8 -17 0l-99 100l-100 -99q-8 -9 -16 0l-8 7q-8 8 0 17l115 115q9 8 17 0z" />
    <glyph glyph-name="chevron-circle-down" unicode="Chevron&#x2d;Circle&#x2d;Down" 
d="M256 440q103 0 175.5 -72.5t72.5 -175.5t-72.5 -175.5t-175.5 -72.5t-175.5 72.5t-72.5 175.5t72.5 175.5t175.5 72.5zM472 192q0 90 -63.5 153t-152.5 63q-90 0 -153 -63.5t-63 -152.5q0 -90 63.5 -153t152.5 -63q90 0 153 63.5t63 152.5zM264 105q-8 -8 -17 0l-115 115
q-8 9 0 17l8 7q8 9 16 0l100 -99l99 100q9 8 17 0l8 -7q8 -9 0 -18z" />
    <glyph glyph-name="anchor" unicode="Anchor" horiz-adv-x="576" 
d="M504 184l68 -68q5 -5 2 -12.5t-11 -7.5h-52q-14 -69 -77 -114.5t-146 -45.5q-81 0 -145 44.5t-78 115.5h-52q-8 0 -11 7.5t2 12.5l68 68q8 8 16 0l68 -68q5 -5 2 -12.5t-11 -7.5h-49q13 -52 61 -87.5t113 -39.5v287h-52q-12 0 -12 12v8q0 12 12 12h52v34
q-21 5 -34.5 22.5t-13.5 39.5q0 27 20 46t47 18q25 -1 42.5 -18.5t18.5 -42.5q1 -23 -12.5 -41t-35.5 -24v-34h52q12 0 12 -12v-8q0 -12 -12 -12h-52v-287q65 4 113 39.5t61 87.5h-49q-8 0 -11 7.5t2 12.5l68 68q8 8 16 0zM256 384q0 -13 9.5 -22.5t22.5 -9.5t22.5 9.5
t9.5 22.5t-9.5 22.5t-22.5 9.5t-22.5 -9.5t-9.5 -22.5zM61 128h38l-19 19zM477 128h38l-19 19z" />
    <glyph glyph-name="unlock-alt" unicode="Unlock&#x2d;Alt" horiz-adv-x="384" 
d="M336 192q20 0 34 -14t14 -34v-160q0 -20 -14 -34t-34 -14h-288q-20 0 -34 14t-14 34v160q0 20 14 34t34 14h16v96q0 71 32.5 115.5t96 44.5t95.5 -45.5t32 -116.5v-18q0 -12 -12 -12h-8q-12 0 -12 12v20q0 58 -23 93t-73 35t-73 -35t-23 -93v-96h240zM352 -16v160
q0 7 -4.5 11.5t-11.5 4.5h-288q-7 0 -11.5 -4.5t-4.5 -11.5v-160q0 -7 4.5 -11.5t11.5 -4.5h288q7 0 11.5 4.5t4.5 11.5zM192 16q-7 0 -11.5 4.5t-4.5 11.5v64q0 7 4.5 11.5t11.5 4.5t11.5 -4.5t4.5 -11.5v-64q0 -7 -4.5 -11.5t-11.5 -4.5z" />
    <glyph glyph-name="bullseye" unicode="Bullseye" horiz-adv-x="496" 
d="M248 356q68 0 116 -48t48 -116t-48 -116t-116 -48t-116 48t-48 116t48 116t116 48zM248 60q55 0 93.5 38.5t38.5 93.5t-38.5 93.5t-93.5 38.5t-93.5 -38.5t-38.5 -93.5t38.5 -93.5t93.5 -38.5zM248 272q33 0 56.5 -23.5t23.5 -56.5t-23.5 -56.5t-56.5 -23.5t-56.5 23.5
t-23.5 56.5t23.5 56.5t56.5 23.5zM248 144q20 0 34 14t14 34t-14 34t-34 14t-34 -14t-14 -34t14 -34t34 -14zM248 440q103 0 175.5 -72.5t72.5 -175.5t-72.5 -175.5t-175.5 -72.5t-175.5 72.5t-72.5 175.5t72.5 175.5t175.5 72.5zM248 -24q89 0 152.5 63.5t63.5 152.5
t-63.5 152.5t-152.5 63.5t-152.5 -63.5t-63.5 -152.5t63.5 -152.5t152.5 -63.5z" />
    <glyph glyph-name="ellipsis-h" unicode="Ellipsis&#x2d;H" horiz-adv-x="320" 
d="M192 192q0 -13 -9.5 -22.5t-22.5 -9.5t-22.5 9.5t-9.5 22.5t9.5 22.5t22.5 9.5t22.5 -9.5t9.5 -22.5zM280 224q13 0 22.5 -9.5t9.5 -22.5t-9.5 -22.5t-22.5 -9.5t-22.5 9.5t-9.5 22.5t9.5 22.5t22.5 9.5zM40 224q13 0 22.5 -9.5t9.5 -22.5t-9.5 -22.5t-22.5 -9.5
t-22.5 9.5t-9.5 22.5t9.5 22.5t22.5 9.5z" />
    <glyph glyph-name="ellipsis-v" unicode="Ellipsis&#x2d;V" horiz-adv-x="64" 
d="M32 224q13 0 22.5 -9.5t9.5 -22.5t-9.5 -22.5t-22.5 -9.5t-22.5 9.5t-9.5 22.5t9.5 22.5t22.5 9.5zM0 312q0 13 9.5 22.5t22.5 9.5t22.5 -9.5t9.5 -22.5t-9.5 -22.5t-22.5 -9.5t-22.5 9.5t-9.5 22.5zM0 72q0 13 9.5 22.5t22.5 9.5t22.5 -9.5t9.5 -22.5t-9.5 -22.5
t-22.5 -9.5t-22.5 9.5t-9.5 22.5z" />
    <glyph glyph-name="rss-square" unicode="Rss&#x2d;Square" horiz-adv-x="448" 
d="M400 416q20 0 34 -14t14 -34v-352q0 -20 -14 -34t-34 -14h-352q-20 0 -34 14t-14 34v352q0 20 14 34t34 14h352zM416 16v352q0 7 -4.5 11.5t-11.5 4.5h-352q-7 0 -11.5 -4.5t-4.5 -11.5v-352q0 -7 4.5 -11.5t11.5 -4.5h352q7 0 11.5 4.5t4.5 11.5zM144 128
q-7 0 -11.5 -4.5t-4.5 -11.5t4.5 -11.5t11.5 -4.5t11.5 4.5t4.5 11.5t-4.5 11.5t-11.5 4.5zM144 160q20 0 34 -14t14 -34t-14 -34t-34 -14t-34 14t-14 34t14 34t34 14zM340 64h-8q-11 0 -12 11q-4 86 -65 147.5t-148 65.5q-11 1 -11 12v8q0 5 3.5 8.5t9.5 3.5q98 -5 168 -75
t75 -168q0 -6 -3.5 -9.5t-8.5 -3.5zM268 64h-8q-11 0 -12 11q-4 57 -44.5 97t-96.5 44q-11 1 -11 12v8q0 5 4 8.5t9 3.5q68 -5 117 -54t54 -117q0 -5 -3.5 -9t-8.5 -4z" />
    <glyph glyph-name="play-circle" unicode="Play&#x2d;Circle" 
d="M256 -56q-103 0 -175.5 72.5t-72.5 175.5t72.5 175.5t175.5 72.5t175.5 -72.5t72.5 -175.5t-72.5 -175.5t-175.5 -72.5zM40 192q0 -90 63.5 -153t152.5 -63q90 0 153 63.5t63 152.5q0 90 -63.5 153t-152.5 63q-90 0 -153 -63.5t-63 -152.5zM372 210q12 -7 12 -21t-12 -21
l-176 -101q-12 -7 -24 0t-12 21v208q0 14 12 21t24 0zM192 112q0 -3 3 -5t6 0l135 77q2 2 2.5 5.5t-2.5 4.5l-135 82q-3 2 -6 0.5t-3 -5.5v-159z" />
    <glyph glyph-name="ticket" unicode="Ticket" horiz-adv-x="576" 
d="M544 224q-13 0 -22.5 -9.5t-9.5 -22.5t9.5 -22.5t22.5 -9.5h32v-112q0 -20 -14 -34t-34 -14h-480q-20 0 -34 14t-14 34v112h32q13 0 22.5 9.5t9.5 22.5t-9.5 22.5t-22.5 9.5h-32v112q0 20 14 34t34 14h480q20 0 34 -14t14 -34v-112h-32zM544 128q-26 0 -45 19t-19 45
t19 45t45 19v80q0 7 -4.5 11.5t-11.5 4.5h-480q-7 0 -11.5 -4.5t-4.5 -11.5v-80q26 0 45 -19t19 -45t-19 -45t-45 -19v-80q0 -7 4.5 -11.5t11.5 -4.5h480q7 0 11.5 4.5t4.5 11.5v80z" />
    <glyph glyph-name="minus-square" unicode="Minus&#x2d;Square" horiz-adv-x="448" 
d="M400 384h-352q-7 0 -11.5 -4.5t-4.5 -11.5v-352q0 -7 4.5 -11.5t11.5 -4.5h352q7 0 11.5 4.5t4.5 11.5v352q0 7 -4.5 11.5t-11.5 4.5zM400 416q20 0 34 -14t14 -34v-352q0 -20 -14 -34t-34 -14h-352q-20 0 -34 14t-14 34v352q0 20 14 34t34 14h352zM340 174h-232
q-12 0 -12 12v12q0 12 12 12h232q12 0 12 -12v-12q0 -12 -12 -12z" />
    <glyph glyph-name="level-up" unicode="Level&#x2d;Up" horiz-adv-x="256" 
d="M252 345q9 -9 0 -18l-8 -8q-9 -9 -17 0l-65 65v-424q0 -10 -7 -17t-17 -7h-126q-8 0 -11 7.5t3 12.5l12 12q3 4 8 4h102v412l-65 -65q-8 -9 -17 0l-8 8q-9 9 0 18l99 99q9 9 18 0z" />
    <glyph glyph-name="level-down" unicode="Level&#x2d;Down" horiz-adv-x="256" 
d="M252 39l-99 -99q-9 -9 -18 0l-99 99q-9 9 0 18l8 8q9 9 17 0l65 -65v412h-102q-5 0 -8 4l-12 12q-6 5 -3 12.5t11 7.5h126q10 0 17 -7t7 -17v-424l65 65q8 9 17 0l8 -8q9 -9 0 -18z" />
    <glyph glyph-name="check-square" unicode="Check&#x2d;Square" horiz-adv-x="448" 
d="M400 416q20 0 34 -14t14 -34v-352q0 -20 -14 -34t-34 -14h-352q-20 0 -34 14t-14 34v352q0 20 14 34t34 14h352zM400 384h-352q-7 0 -11.5 -4.5t-4.5 -11.5v-352q0 -7 4.5 -11.5t11.5 -4.5h352q7 0 11.5 4.5t4.5 11.5v352q0 7 -4.5 11.5t-11.5 4.5zM366 286q8 -9 0 -17
l-181 -179q-8 -9 -17 0l-86 86q-8 9 0 17l9 9q8 8 17 0l69 -70l163 162q9 9 17 0z" />
    <glyph glyph-name="pen-square" unicode="Pen&#x2d;Square" horiz-adv-x="448" 
d="M400 416q20 0 34 -14t14 -34v-352q0 -20 -14 -34t-34 -14h-352q-20 0 -34 14t-14 34v352q0 20 14 34t34 14h352zM416 16v352q0 7 -4.5 11.5t-11.5 4.5h-352q-7 0 -11.5 -4.5t-4.5 -11.5v-352q0 -7 4.5 -11.5t11.5 -4.5h352q7 0 11.5 4.5t4.5 11.5zM349 340l23 -23
q12 -12 12 -28.5t-12 -28.5l-220 -220l-71 -8q-8 -1 -13 4t-4 13l8 71l220 220q12 12 28.5 12t28.5 -12zM137 71l163 162l-35 35l-163 -163l-4 -39zM350 283q5 6 0 11l-24 24q-5 5 -11 0l-27 -27l35 -35z" />
    <glyph glyph-name="external-link-square" unicode="External&#x2d;Link&#x2d;Square" horiz-adv-x="448" 
d="M400 416q20 0 34 -14t14 -34v-352q0 -20 -14 -34t-34 -14h-352q-20 0 -34 14t-14 34v352q0 20 14 34t34 14h352zM416 16v352q0 7 -4.5 11.5t-11.5 4.5h-352q-7 0 -11.5 -4.5t-4.5 -11.5v-352q0 -7 4.5 -11.5t11.5 -4.5h352q7 0 11.5 4.5t4.5 11.5zM100 73q-9 9 0 17
l195 195l-1 1h-90q-5 0 -8.5 3.5t-3.5 8.5v10q0 5 3.5 8.5t8.5 3.5h136q12 0 12 -12v-136q0 -5 -3.5 -8.5t-8.5 -3.5h-10q-5 0 -8.5 3.5t-3.5 8.5v90l-1 1l-195 -195q-8 -9 -17 0z" />
    <glyph glyph-name="share-square" unicode="Share&#x2d;Square" horiz-adv-x="576" 
d="M567 279q9 -10 9 -23t-9 -23l-160 -160q-15 -15 -35 -6.5t-20 29.5v71q-98 -2 -127 -27t-8 -99q6 -22 -12.5 -35t-37.5 0q-79 58 -79 156q0 41 14 73t37.5 51.5t58.5 32.5t71.5 18t82.5 6v73q0 21 20 29.5t35 -6.5zM384 96l160 160l-160 160v-104q-46 0 -79 -3t-70.5 -12
t-60.5 -24.5t-38.5 -44t-15.5 -66.5q0 -81 66 -130q-9 32 -9.5 57.5t5 43t20 29.5t31 19.5t43 11.5t50.5 5.5t58 1.5v-104zM421 44q3 2 7 5q6 6 13 2.5t7 -10.5v-57q0 -20 -14 -34t-34 -14h-352q-20 0 -34 14t-14 34v352q0 20 14 34t34 14h172q5 0 8.5 -3.5t3.5 -8.5
q0 -9 -9 -11q-15 -4 -27 -8q-2 -1 -4 -1h-144q-7 0 -11.5 -4.5t-4.5 -11.5v-352q0 -7 4.5 -11.5t11.5 -4.5h352q7 0 11.5 4.5t4.5 11.5v50q0 6 5 10z" />
    <glyph glyph-name="compass" unicode="Compass" horiz-adv-x="496" 
d="M265 175q-7 -7 -17 -7t-17 7t-7 17t7 17t17 7t17 -7t7 -17t-7 -17zM351 323q13 0 22 -11.5t5 -22.5l-56 -155q-4 -12 -16 -16l-155 -56q-3 -1 -6 -1q-13 0 -22 11.5t-5 22.5l56 155q4 12 16 16l155 56q3 1 6 1zM293 147l50 140l-140 -50l-50 -140zM248 440
q103 0 175.5 -72.5t72.5 -175.5t-72.5 -175.5t-175.5 -72.5t-175.5 72.5t-72.5 175.5t72.5 175.5t175.5 72.5zM248 -24q89 0 152.5 63.5t63.5 152.5t-63.5 152.5t-152.5 63.5t-152.5 -63.5t-63.5 -152.5t63.5 -152.5t152.5 -63.5z" />
    <glyph glyph-name="caret-square-down" unicode="Caret&#x2d;Square&#x2d;Down" horiz-adv-x="448" 
d="M400 416q20 0 34 -14t14 -34v-352q0 -20 -14 -34t-34 -14h-352q-20 0 -34 14t-14 34v352q0 20 14 34t34 14h352zM416 16v352q0 7 -4.5 11.5t-11.5 4.5h-352q-7 0 -11.5 -4.5t-4.5 -11.5v-352q0 -7 4.5 -11.5t11.5 -4.5h352q7 0 11.5 4.5t4.5 11.5zM320 224h-192l96 -96z
M128 256h192q21 0 29.5 -20t-6.5 -35l-96 -96q-10 -9 -23 -9t-23 9l-96 96q-15 15 -6.5 35t29.5 20z" />
    <glyph glyph-name="caret-square-up" unicode="Caret&#x2d;Square&#x2d;Up" horiz-adv-x="448" 
d="M48 -32q-20 0 -34 14t-14 34v352q0 20 14 34t34 14h352q20 0 34 -14t14 -34v-352q0 -20 -14 -34t-34 -14h-352zM32 368v-352q0 -7 4.5 -11.5t11.5 -4.5h352q7 0 11.5 4.5t4.5 11.5v352q0 7 -4.5 11.5t-11.5 4.5h-352q-7 0 -11.5 -4.5t-4.5 -11.5zM128 160h192l-96 96z
M320 128h-192q-21 0 -29.5 20t6.5 35l96 96q10 9 23 9t23 -9l96 -96q15 -15 6.5 -35t-29.5 -20z" />
    <glyph glyph-name="caret-square-right" unicode="Caret&#x2d;Square&#x2d;Right" horiz-adv-x="448" 
d="M0 368q0 20 14 34t34 14h352q20 0 34 -14t14 -34v-352q0 -20 -14 -34t-34 -14h-352q-20 0 -34 14t-14 34v352zM400 384h-352q-7 0 -11.5 -4.5t-4.5 -11.5v-352q0 -7 4.5 -11.5t11.5 -4.5h352q7 0 11.5 4.5t4.5 11.5v352q0 7 -4.5 11.5t-11.5 4.5zM192 288v-192l96 96z
M160 96v192q0 21 20 29.5t35 -6.5l96 -96q9 -10 9 -23t-9 -23l-96 -96q-15 -15 -35 -6.5t-20 29.5z" />
    <glyph glyph-name="euro-sign" unicode="Euro&#x2d;Sign" horiz-adv-x="320" 
d="M304 4l3 -15q3 -12 -9 -15q-26 -6 -53 -6q-78 0 -134.5 43.5t-72.5 116.5h-26q-12 0 -12 12v8q0 12 12 12h21q-3 37 1 64h-22q-12 0 -12 12v8q0 12 12 12h27q19 70 75 115t131 45q23 0 46 -5q5 -1 7.5 -5t1.5 -9l-4 -16q-3 -11 -14 -9q-19 5 -37 5q-59 0 -101.5 -33.5
t-58.5 -87.5h173q6 0 9.5 -4.5t2.5 -9.5l-1 -8q-2 -10 -12 -10h-179q-3 -30 0 -64h163q6 0 9.5 -4.5t2.5 -9.5l-2 -8q-1 -10 -11 -10h-156q15 -56 58 -88.5t103 -32.5q22 0 44 6q12 3 15 -9z" />
    <glyph glyph-name="pound-sign" unicode="Pound&#x2d;Sign" horiz-adv-x="320" 
d="M308 80q12 0 12 -12v-88q0 -12 -12 -12h-296q-12 0 -12 12v13q0 5 3.5 8.5t8.5 3.5h42v155h-34q-12 0 -12 12v8q0 12 12 12h34v108q0 50 36.5 83t92.5 33q47 0 88 -27q11 -8 2 -18l-10 -13q-7 -8 -16 -2q-31 20 -64 20q-39 0 -62 -22.5t-23 -55.5v-106h106q12 0 12 -12
v-8q0 -12 -12 -12h-106v-154h182v62q0 5 3.5 8.5t8.5 3.5h16z" />
    <glyph glyph-name="dollar-sign" unicode="Dollar&#x2d;Sign" horiz-adv-x="256" 
d="M192 189q28 -9 46 -35t18 -58q0 -40 -26 -68t-63 -28h-23v-56q0 -8 -8 -8h-16q-8 0 -8 8v56h-19q-47 0 -83 34q-6 6 0 12l12 11q6 5 11 -1q26 -24 60 -24h74q24 0 40.5 19t16.5 45q0 22 -11.5 39t-30.5 23l-118 37q-28 9 -46 35t-18 58q0 40 26 68t63 28h23v56q0 8 8 8
h16q8 0 8 -8v-56h19q47 0 83 -34q6 -6 0 -12l-12 -11q-6 -5 -11 1q-26 24 -60 24h-74q-24 0 -40.5 -19t-16.5 -45q0 -22 11.5 -39t30.5 -23z" />
    <glyph glyph-name="rupee-sign" unicode="Rupee&#x2d;Sign" horiz-adv-x="320" 
d="M320 388q0 -12 -12 -12h-117q22 -23 30 -56h87q12 0 12 -12v-16q0 -12 -12 -12h-84q-3 -55 -41.5 -87.5t-96.5 -32.5h-24l156 -172q5 -6 2 -13t-11 -7h-22q-5 0 -9 4l-175 193q-3 3 -3 8v15q0 5 3.5 8.5t8.5 3.5h72q43 0 69 21.5t29 58.5h-170q-12 0 -12 12v16
q0 12 12 12h166q-9 27 -33.5 41.5t-59.5 14.5h-73q-12 0 -12 12v16q0 12 12 12h296q12 0 12 -12v-16z" />
    <glyph glyph-name="yen-sign" unicode="Yen&#x2d;Sign" horiz-adv-x="320" 
d="M308 416q7 0 10.5 -6t-0.5 -12l-100 -174h58q12 0 12 -12v-8q0 -12 -12 -12h-76l-17 -32v-32h93q12 0 12 -12v-8q0 -12 -12 -12h-93v-116q0 -5 -3.5 -8.5t-8.5 -3.5h-21q-5 0 -8.5 3.5t-3.5 8.5v116h-94q-12 0 -12 12v8q0 12 12 12h94v32l-19 32h-75q-12 0 -12 12v8
q0 12 12 12h57l-99 174q-4 6 -0.5 12t10.5 6h23q7 0 10 -6l87 -153l27 -57h1q14 31 28 57l87 153q4 6 10 6h23z" />
    <glyph glyph-name="ruble-sign" unicode="Ruble&#x2d;Sign" horiz-adv-x="384" 
d="M246 160h-106v-58h168q12 0 12 -12v-14q0 -12 -12 -12h-168v-84q0 -5 -3.5 -8.5t-8.5 -3.5h-20q-12 0 -12 12v84h-84q-12 0 -12 12v14q0 12 12 12h84v58h-84q-12 0 -12 12v16q0 12 12 12h84v204q0 12 12 12h138q61 0 99.5 -34.5t38.5 -92.5t-38.5 -93.5t-99.5 -35.5z
M140 376v-176h104q45 0 72 24t27 65t-26.5 64t-71.5 23h-105z" />
    <glyph glyph-name="won-sign" unicode="Won&#x2d;Sign" horiz-adv-x="576" 
d="M564 288h-63l-14 -56h77q12 0 12 -12v-16q0 -12 -12 -12h-86l-51 -215q-3 -9 -12 -9h-28q-10 0 -12 9l-52 215h-72l-52 -215q-2 -9 -11 -9h-29q-9 0 -11 9l-50 215h-86q-12 0 -12 12v16q0 12 12 12h77l-13 56h-64q-12 0 -12 12v16q0 12 12 12h54l-16 72q-2 6 2 10.5
t9 4.5h17q9 0 11 -9l18 -78h140l19 78q2 9 12 9h19q9 0 11 -9l19 -78h143l18 78q2 9 11 9h17q6 0 9.5 -4.5t1.5 -10.5l-17 -72h54q12 0 12 -12v-16q0 -12 -12 -12zM287 350l-4 -22h9l-4 22h-1zM116 288l12 -56h96l13 56h-121zM184 68l30 124h-77l28 -124l9 -48h1l1 7t3.5 19
zM261 232h52l-12 51l-1 5h-25l-2 -5zM410 68l28 124h-78l30 -124q3 -10 5 -22t3 -19l1 -7h2q3 25 9 48zM448 232l13 56h-124l13 -56h98z" />
    <glyph glyph-name="file" unicode="File" horiz-adv-x="384" 
d="M370 350q14 -14 14 -34v-332q0 -20 -14 -34t-34 -14h-288q-20 0 -34 14t-14 34v416q0 20 14 34t34 14h204q20 0 34 -14zM347 327l-84 84q-3 3 -7 5v-96h96q-2 4 -5 7zM336 -32q7 0 11.5 4.5t4.5 11.5v304h-104q-10 0 -17 7t-7 17v104h-176q-7 0 -11.5 -4.5t-4.5 -11.5
v-416q0 -7 4.5 -11.5t11.5 -4.5h288z" />
    <glyph glyph-name="file-alt" unicode="File&#x2d;Alt" horiz-adv-x="384" 
d="M370 350q14 -14 14 -34v-332q0 -20 -14 -34t-34 -14h-288q-20 0 -34 14t-14 34v416q0 20 14 34t34 14h204q20 0 34 -14zM347 327l-84 84q-3 3 -7 5v-96h96q-2 4 -5 7zM336 -32q7 0 11.5 4.5t4.5 11.5v304h-104q-10 0 -17 7t-7 17v104h-176q-7 0 -11.5 -4.5t-4.5 -11.5
v-416q0 -7 4.5 -11.5t11.5 -4.5h288zM288 212v-8q0 -12 -12 -12h-168q-12 0 -12 12v8q0 12 12 12h168q12 0 12 -12zM288 148v-8q0 -12 -12 -12h-168q-12 0 -12 12v8q0 12 12 12h168q12 0 12 -12zM288 84v-8q0 -12 -12 -12h-168q-12 0 -12 12v8q0 12 12 12h168q12 0 12 -12z
" />
    <glyph glyph-name="sort-alpha-down" unicode="Sort&#x2d;Alpha&#x2d;Down" horiz-adv-x="448" 
d="M432 160q8 0 8 -8v-11q0 -5 -3 -9l-93 -132h88q8 0 8 -8v-16q0 -8 -8 -8h-128q-8 0 -8 8v11q0 5 3 9l93 132h-88q-8 0 -8 8v16q0 8 8 8h128zM447 240q1 -2 1 -4q0 -5 -3.5 -8.5t-8.5 -3.5h-11q-9 0 -11 8l-16 44h-61l-15 -44q-2 -8 -11 -8h-11q-5 0 -8.5 3.5t-3.5 8.5
q0 2 1 4l59 168q3 8 12 8h16q9 0 12 -8zM347 307h41l-20 60zM199 76l6 -5q3 -4 3 -9t-4 -8l-84 -83q-3 -3 -8 -3t-8 3l-84 83q-4 3 -4 8t4 9l5 5q4 4 9 4t8 -4l54 -52v384q0 8 8 8h16q8 0 8 -8v-384l54 53q4 3 8.5 3t8.5 -4z" />
    <glyph glyph-name="sort-alpha-up" unicode="Sort&#x2d;Alpha&#x2d;Up" horiz-adv-x="448" 
d="M120 412l84 -82q4 -3 4 -8t-4 -9l-5 -5q-4 -4 -9 -4t-8 4l-54 52v-384q0 -8 -8 -8h-16q-8 0 -8 8v384l-54 -53q-3 -3 -8 -3t-9 3l-6 6q-3 4 -3 9t4 8l84 82q3 4 8 4t8 -4zM447 240q1 -2 1 -4q0 -5 -3.5 -8.5t-8.5 -3.5h-11q-9 0 -11 8l-16 44h-61l-15 -44q-2 -8 -11 -8
h-11q-5 0 -8.5 3.5t-3.5 8.5q0 2 1 4l59 168q3 8 12 8h16q9 0 12 -8zM347 307h41l-20 60zM432 160q8 0 8 -8v-11q0 -5 -3 -9l-93 -132h88q8 0 8 -8v-16q0 -8 -8 -8h-128q-8 0 -8 8v11q0 5 3 9l93 132h-88q-8 0 -8 8v16q0 8 8 8h128z" />
    <glyph glyph-name="sort-amount-down" unicode="Sort&#x2d;Amount&#x2d;Down" 
d="M376 160q8 0 8 -8v-16q0 -8 -8 -8h-112q-8 0 -8 8v16q0 8 8 8h112zM312 64q8 0 8 -8v-16q0 -8 -8 -8h-48q-8 0 -8 8v16q0 8 8 8h48zM504 352q8 0 8 -8v-16q0 -8 -8 -8h-240q-8 0 -8 8v16q0 8 8 8h240zM440 256q8 0 8 -8v-16q0 -8 -8 -8h-176q-8 0 -8 8v16q0 8 8 8h176z
M199 76l6 -5q3 -4 3 -9t-4 -8l-84 -83q-3 -3 -8 -3t-8 3l-84 83q-4 3 -4 8t4 9l5 5q4 4 9 4t8 -4l54 -52v384q0 8 8 8h16q8 0 8 -8v-384l54 53q4 3 8.5 3t8.5 -4z" />
    <glyph glyph-name="sort-amount-up" unicode="Sort&#x2d;Amount&#x2d;Up" 
d="M312 64q8 0 8 -8v-16q0 -8 -8 -8h-48q-8 0 -8 8v16q0 8 8 8h48zM376 160q8 0 8 -8v-16q0 -8 -8 -8h-112q-8 0 -8 8v16q0 8 8 8h112zM504 352q8 0 8 -8v-16q0 -8 -8 -8h-240q-8 0 -8 8v16q0 8 8 8h240zM440 256q8 0 8 -8v-16q0 -8 -8 -8h-176q-8 0 -8 8v16q0 8 8 8h176z
M120 412l84 -82q4 -3 4 -8t-4 -9l-5 -5q-4 -4 -9 -4t-8 4l-54 52v-384q0 -8 -8 -8h-16q-8 0 -8 8v384l-54 -53q-3 -3 -8 -3t-9 3l-6 6q-3 4 -3 9t4 8l84 82q3 4 8 4t8 -4z" />
    <glyph glyph-name="sort-numeric-down" unicode="Sort&#x2d;Numeric&#x2d;Down" horiz-adv-x="448" 
d="M344 191q8 1 16 1q30 0 51 -21t21 -51v-40q0 -43 -30.5 -75.5t-73.5 -36.5q-8 0 -8 8v1v16q0 7 8 8q24 2 43 18t26 40q-18 -11 -38 -11q-30 0 -51 21t-21 51q0 24 17 45t40 26zM360 80q17 0 28.5 12t11.5 28.5t-11.5 28t-28.5 11.5t-28.5 -11.5t-11.5 -28t11.5 -28.5
t28.5 -12zM424 256q8 0 8 -8v-16q0 -8 -8 -8h-112q-8 0 -8 8v16q0 8 8 8h40v96h-16q-7 0 -11.5 4.5t-4.5 11.5q0 5 2 8l20 32q5 8 14 8h12q7 0 11.5 -4.5t4.5 -11.5v-144h40zM199 76l6 -5q3 -4 3 -9t-4 -8l-84 -83q-3 -3 -8 -3t-8 3l-84 83q-4 3 -4 8t4 9l5 5q4 4 9 4t8 -4
l54 -52v384q0 8 8 8h16q8 0 8 -8v-384l54 53q4 3 8.5 3t8.5 -4z" />
    <glyph glyph-name="sort-numeric-up" unicode="Sort&#x2d;Numeric&#x2d;Up" horiz-adv-x="448" 
d="M424 256q8 0 8 -8v-16q0 -8 -8 -8h-112q-8 0 -8 8v16q0 8 8 8h40v96h-16q-7 0 -11.5 4.5t-4.5 11.5q0 5 2 8l20 32q5 8 14 8h12q7 0 11.5 -4.5t4.5 -11.5v-144h40zM344 191q8 1 16 1q30 0 51 -21t21 -51v-40q0 -43 -30.5 -75.5t-73.5 -36.5q-8 0 -8 8v1v16q0 7 8 8
q24 2 43 18t26 40q-18 -11 -38 -11q-30 0 -51 21t-21 51q0 24 17 45t40 26zM360 80q17 0 28.5 12t11.5 28.5t-11.5 28t-28.5 11.5t-28.5 -11.5t-11.5 -28t11.5 -28.5t28.5 -12zM120 412l84 -82q4 -3 4 -8t-4 -9l-5 -5q-4 -4 -9 -4t-8 4l-54 52v-384q0 -8 -8 -8h-16
q-8 0 -8 8v384l-54 -53q-3 -3 -8 -3t-9 3l-6 6q-3 4 -3 9t4 8l84 82q3 4 8 4t8 -4z" />
    <glyph glyph-name="thumbs-up" unicode="Thumbs&#x2d;Up" 
d="M497 162q9 -39 -10 -69q7 -38 -18 -67q1 -41 -23 -65.5t-68 -24.5h-41q-43 0 -104.5 20.5t-72.5 20.5v-9q0 -13 -9.5 -22.5t-22.5 -9.5h-96q-13 0 -22.5 9.5t-9.5 22.5v256q0 13 9.5 22.5t22.5 9.5h96q17 0 26 -14q5 1 8 2q13 7 43.5 46t38.5 47q9 10 16 44q13 67 47 67
q83 0 83 -93q0 -29 -21 -70h70q30 0 51.5 -22t21.5 -50q0 -31 -15 -51zM32 -32h96v256h-96v-256zM456 172q24 6 24 40q0 16 -12 28.5t-29 12.5h-112q0 20 15.5 50.5t15.5 51.5q0 13 -1 20.5t-5.5 18.5t-15.5 16.5t-29 5.5q-9 -9 -16.5 -47t-24.5 -55q-10 -10 -31.5 -39
t-39.5 -46t-35 -17v-203q18 0 77.5 -20.5t99.5 -20.5h41q68 1 57 71q14 7 19.5 25.5t-4.5 36.5q16 8 17.5 35t-11.5 36zM104 16q0 -10 -7 -17t-17 -7t-17 7t-7 17t7 17t17 7t17 -7t7 -17z" />
    <glyph glyph-name="thumbs-down" unicode="Thumbs&#x2d;Down" 
d="M497 222q15 -20 15 -51q0 -28 -21.5 -50t-51.5 -22h-70q21 -41 21 -70q0 -93 -83 -93q-34 0 -47 67q-7 34 -16 44q-8 8 -38.5 47t-43.5 46h-2v-12q0 -13 -9.5 -22.5t-22.5 -9.5h-96q-13 0 -22.5 9.5t-9.5 22.5v256q0 13 9.5 22.5t22.5 9.5h96q12 0 21 -8h11q13 0 73.5 20
t103.5 20h41q44 0 68 -24.5t23 -65.5q25 -29 18 -67q19 -30 10 -69zM128 128v256h-96v-256h96zM439 131q17 0 29 12.5t12 28.5q0 34 -24 40q13 9 11.5 36t-17.5 35q10 18 4.5 36.5t-19.5 25.5q11 70 -57 71h-10h-19.5h-11.5q-40 0 -100 -20.5t-73 -20.5h-4v-203h4
q14 0 32 -18.5t39.5 -46.5t30.5 -37q17 -17 24.5 -55t16.5 -47q18 0 29 5.5t15.5 16.5t5.5 18.5t1 20.5q0 21 -15.5 51.5t-15.5 50.5h112zM104 176q0 -10 -7 -17t-17 -7t-17 7t-7 17t7 17t17 7t17 -7t7 -17z" />
    <glyph glyph-name="long-arrow-down" unicode="Long&#x2d;Arrow&#x2d;Down" horiz-adv-x="256" 
d="M252 105q9 -9 0 -17l-116 -116q-8 -9 -16 0l-116 116q-9 8 0 17l7 7q8 9 17 0l83 -84v376q0 12 12 12h10q12 0 12 -12v-376l83 84q9 9 17 0z" />
    <glyph glyph-name="long-arrow-up" unicode="Long&#x2d;Arrow&#x2d;Up" horiz-adv-x="256" 
d="M4 279q-9 9 0 17l116 116q8 9 16 0l116 -116q9 -8 0 -17l-7 -7q-8 -9 -17 0l-83 84v-376q0 -12 -12 -12h-10q-12 0 -12 12v376l-83 -84q-4 -4 -9 -4t-8 4z" />
    <glyph glyph-name="long-arrow-left" unicode="Long&#x2d;Arrow&#x2d;Left" horiz-adv-x="448" 
d="M137 68q-9 -9 -17 0l-116 116q-9 8 0 16l116 116q8 9 17 0l7 -7q9 -8 0 -17l-84 -83h376q12 0 12 -12v-10q0 -12 -12 -12h-376l84 -83q9 -9 0 -17z" />
    <glyph glyph-name="long-arrow-right" unicode="Long&#x2d;Arrow&#x2d;Right" horiz-adv-x="448" 
d="M311 316q9 9 17 0l116 -116q9 -8 0 -16l-116 -116q-8 -9 -17 0l-7 7q-9 8 0 17l84 83h-376q-12 0 -12 12v10q0 12 12 12h376l-84 83q-9 9 0 17z" />
    <glyph glyph-name="female" unicode="Female" horiz-adv-x="256" 
d="M255 107q5 -22 -9.5 -40.5t-37.5 -18.5h-13v-59q0 -22 -15.5 -37.5t-37.5 -15.5h-28q-22 0 -37.5 15.5t-15.5 37.5v59h-13q-23 0 -37.5 18.5t-9.5 40.5l40 164q4 17 17 27q2 2 5 3q-23 25 -23 59q0 36 26 62t62 26t62 -26t26 -62q0 -34 -23 -59q3 -1 5 -3q13 -10 17 -27z
M128 416q-23 0 -39.5 -16.5t-16.5 -39.5t16.5 -39.5t39.5 -16.5t39.5 16.5t16.5 39.5t-16.5 39.5t-39.5 16.5zM208 80q8 0 12.5 6t3.5 14l-40 164q-3 12 -16 12h-12q-14 -4 -28 -4t-28 4h-12q-13 0 -16 -12l-40 -164q-1 -8 3.5 -14t12.5 -6h45v-91q0 -9 6 -15t15 -6h28
q9 0 15 6t6 15v91h45z" />
    <glyph glyph-name="male" unicode="Male" horiz-adv-x="256" 
d="M199 308q22 -8 35.5 -27t13.5 -43v-105q0 -18 -11.5 -32.5t-28.5 -18.5v-93q0 -22 -15.5 -37.5t-37.5 -15.5h-54q-22 0 -37.5 15.5t-15.5 37.5v93q-17 4 -28.5 18.5t-11.5 32.5v105q0 24 13.5 43t35.5 27q-17 23 -17 52q0 36 26 62t62 26t62 -26t26 -62q0 -29 -17 -52z
M128 416q-23 0 -39.5 -16.5t-16.5 -39.5t16.5 -39.5t39.5 -16.5t39.5 16.5t16.5 39.5t-16.5 39.5t-39.5 16.5zM216 133v105q0 17 -12.5 29.5t-29.5 12.5h-9q-37 -17 -74 0h-9q-17 0 -29.5 -12.5t-12.5 -29.5v-105q0 -9 6 -15t15 -6h19v-123q0 -9 6 -15t15 -6h54q9 0 15 6
t6 15v123h19q9 0 15 6t6 15z" />
    <glyph glyph-name="sun" unicode="Sun" 
d="M256 304q46 0 79 -32.5t33 -79t-33 -79.5t-79 -33t-79 33t-33 79.5t33 79t79 32.5zM256 112q33 0 56.5 23.5t23.5 56.5t-23.5 56.5t-56.5 23.5t-56.5 -23.5t-23.5 -56.5t23.5 -56.5t56.5 -23.5zM512 192.5q0 -8.5 -7 -13.5l-83 -56l19 -97q2 -9 -4 -15t-14 -4l-98 19
l-56 -83q-5 -7 -13.5 -7t-12.5 7l-56 83l-98 -19q-8 -2 -14 4t-4 15l19 97l-83 56q-7 5 -7 13.5t7 13.5l83 55l-19 98q-2 8 4 14.5t14 4.5l98 -20l56 83q4 7 13 7t13 -7l56 -83l98 20q8 1 14 -5t4 -14l-19 -98l83 -55q7 -5 7 -13.5zM395 144l72 48l-72 48q-9 6 -7 17l17 85
l-85 -17q-10 -2 -16 7l-48 72l-48 -72q-6 -9 -16 -7l-85 17l17 -85q2 -11 -7 -17l-72 -48l72 -48q9 -6 7 -16l-17 -85l85 17h3q8 0 13 -7l48 -72l48 72q6 9 16 7l85 -17l-17 85q-2 10 7 16z" />
    <glyph glyph-name="moon" unicode="Moon" 
d="M449 82q22 5 33.5 -14.5t-2.5 -36.5q-36 -45 -88 -70t-111 -25q-106 0 -181 75t-75 181t75 181t181 75q24 0 47 -4q22 -4 25.5 -26.5t-15.5 -33.5q-39 -21 -61 -59t-22 -82q0 -77 59 -126t135 -35zM281 -32q52 0 97.5 22t76.5 61q-90 -17 -161 41.5t-71 150.5
q0 53 27 98.5t72 70.5q-20 4 -41 4q-93 0 -158.5 -65.5t-65.5 -158.5t65.5 -158.5t158.5 -65.5z" />
    <glyph glyph-name="archive" unicode="Archive" 
d="M464 416q20 0 34 -14t14 -34v-64q0 -7 -4.5 -11.5t-11.5 -4.5h-16v-272q0 -20 -14 -34t-34 -14h-352q-20 0 -34 14t-14 34v272h-16q-7 0 -11.5 4.5t-4.5 11.5v64q0 20 14 34t34 14h416zM448 16v272h-384v-272q0 -7 4.5 -11.5t11.5 -4.5h352q7 0 11.5 4.5t4.5 11.5z
M480 320v48q0 7 -4.5 11.5t-11.5 4.5h-416q-7 0 -11.5 -4.5t-4.5 -11.5v-48h448zM204 192q-12 0 -12 12v8q0 12 12 12h104q12 0 12 -12v-8q0 -12 -12 -12h-104z" />
    <glyph glyph-name="bug" unicode="Bug" horiz-adv-x="576" 
d="M544 176q7 0 11.5 -4.5t4.5 -11.5t-4.5 -11.5t-11.5 -4.5h-64v-24q0 -54 -30 -99l57 -58q12 -11 0.5 -22.5t-22.5 0.5l-56 55q-52 -52 -125 -52h-32q-73 0 -125 52l-56 -55q-4 -5 -11 -5t-11 5q-12 11 0 22l57 58q-30 45 -30 99v24h-64q-7 0 -11.5 4.5t-4.5 11.5
t4.5 11.5t11.5 4.5h64v121l-43 44q-12 11 0 22q4 5 11 5t11 -5l44 -43h42q0 53 37.5 90.5t90.5 37.5t90.5 -37.5t37.5 -90.5h40l36 35q11 12 22.5 0.5t-0.5 -22.5l-35 -36v-121h64zM289 416q-40 0 -68 -28t-28 -68h192q0 40 -28 68t-68 28zM304 -24q60 0 102 42t42 102v168
h-320v-168q0 -60 42 -102t102 -42v236q0 12 12 12h8q12 0 12 -12v-236z" />
    <glyph glyph-name="caret-square-left" unicode="Caret&#x2d;Square&#x2d;Left" horiz-adv-x="448" 
d="M448 16q0 -20 -14 -34t-34 -14h-352q-20 0 -34 14t-14 34v352q0 20 14 34t34 14h352q20 0 34 -14t14 -34v-352zM48 0h352q7 0 11.5 4.5t4.5 11.5v352q0 7 -4.5 11.5t-11.5 4.5h-352q-7 0 -11.5 -4.5t-4.5 -11.5v-352q0 -7 4.5 -11.5t11.5 -4.5zM256 96v192l-96 -96z
M288 288v-192q0 -21 -20 -29.5t-35 6.5l-96 96q-9 10 -9 23t9 23l96 96q15 15 35 6.5t20 -29.5z" />
    <glyph glyph-name="dot-circle" unicode="Dot&#x2d;Circle" 
d="M256 440q103 0 175.5 -72.5t72.5 -175.5t-72.5 -175.5t-175.5 -72.5t-175.5 72.5t-72.5 175.5t72.5 175.5t175.5 72.5zM256 -24q90 0 153 63.5t63 152.5q0 90 -63.5 153t-152.5 63q-90 0 -153 -63.5t-63 -152.5q0 -90 63.5 -153t152.5 -63zM256 272q33 0 56.5 -23.5
t23.5 -56.5t-23.5 -56.5t-56.5 -23.5t-56.5 23.5t-23.5 56.5t23.5 56.5t56.5 23.5zM256 144q20 0 34 14t14 34t-14 34t-34 14t-34 -14t-14 -34t14 -34t34 -14z" />
    <glyph glyph-name="wheelchair" unicode="Wheelchair" horiz-adv-x="448" 
d="M444 52l3 -8q5 -11 -6 -15l-43 -20q-5 -2 -11.5 0t-9.5 9l-60 142h-141q-6 0 -10.5 4t-5.5 10q-32 224 -32 226q0 20 14.5 34.5t35.5 13.5q19 -1 32 -14t14 -32q1 -21 -13.5 -35.5t-34.5 -14.5q-5 0 -9 1l9 -65h132q12 0 12 -12v-8q0 -12 -12 -12h-127l9 -64h138
q11 0 15 -10l57 -137l28 13q11 5 16 -6zM316 80l19 -44q-22 -45 -64.5 -72.5t-94.5 -27.5q-73 0 -124.5 51.5t-51.5 124.5q0 55 31.5 100t81.5 64l5 -32q-39 -17 -62.5 -53t-23.5 -79q0 -60 42 -102t102 -42q51 0 90 31.5t50 80.5z" />
    <glyph glyph-name="lira-sign" unicode="Lira&#x2d;Sign" horiz-adv-x="384" 
d="M372 192q5 0 8.5 -3.5t3.5 -8.5q-4 -100 -64.5 -156t-160.5 -56h-83q-12 0 -12 12v218l-49 -11q-6 -1 -10.5 2.5t-4.5 9.5v8q0 9 9 11l55 13v47l-49 -11q-6 -1 -10.5 2.5t-4.5 9.5v8q0 9 9 11l55 13v93q0 12 12 12h20q5 0 8.5 -3.5t3.5 -8.5v-84l165 37q6 1 10.5 -2.5
t4.5 -9.5v-8q0 -9 -9 -11l-171 -38v-48l165 37q6 1 10.5 -2.5t4.5 -9.5v-8q0 -9 -9 -11l-171 -38v-200h47q82 0 133.5 45t55.5 128q0 11 12 11h16z" />
    <glyph glyph-name="space-shuttle" unicode="Space&#x2d;Shuttle" horiz-adv-x="640" 
d="M448 280q80 0 136 -26t56 -62t-56 -62t-136 -26q-66 0 -113.5 -14t-73.5 -34t-47 -40t-50 -34t-68 -14h-16q-20 0 -34 18.5t-14 45.5v64q-32 0 -32 24v144q0 24 32 24v64q0 27 14 45.5t34 18.5h16q39 0 68 -14t50 -34t47 -40t73.5 -34t113.5 -14zM296 280
q-32 8 -61.5 30.5l-55.5 43.5t-51 27v-93q20 0 38 -8h130zM127 128q27 0 46 18.5t19 44.5q0 27 -18.5 46t-45.5 19h-64v-48h48q13 0 22.5 -4.5t9.5 -11.5t-9.5 -11.5t-22.5 -4.5h-48v-48h63zM64 352v-64h32v96h-16q-5 0 -10.5 -9t-5.5 -23zM64 32q0 -14 5.5 -23t10.5 -9h16
v96h-32v-64zM128 3q25 6 51 27l55.5 43.5t61.5 30.5h-130q-18 -8 -38 -8v-93zM448 136q88 0 128 24v64q-40 24 -128 24h-242q18 -25 18 -55.5t-18 -56.5h242zM488 152q-8 0 -8 8v64q0 8 8 8q15 0 21.5 -20t0 -40t-21.5 -20z" />
    <glyph glyph-name="envelope-square" unicode="Envelope&#x2d;Square" horiz-adv-x="448" 
d="M400 416q20 0 34 -14t14 -34v-352q0 -20 -14 -34t-34 -14h-352q-20 0 -34 14t-14 34v352q0 20 14 34t34 14h352zM416 16v352q0 7 -4.5 11.5t-11.5 4.5h-352q-7 0 -11.5 -4.5t-4.5 -11.5v-352q0 -7 4.5 -11.5t11.5 -4.5h352q7 0 11.5 4.5t4.5 11.5zM352 320
q13 0 22.5 -9.5t9.5 -22.5v-192q0 -13 -9.5 -22.5t-22.5 -9.5h-256q-13 0 -22.5 9.5t-9.5 22.5v192q0 13 9.5 22.5t22.5 9.5h256zM352 288h-256v-34l82 -66q1 0 9.5 -7l12.5 -10.5t11.5 -7t12.5 -3.5v0q5 0 12.5 3.5t11.5 7l12.5 10.5t9.5 7l82 66v34zM96 96h256v117
l-62 -50q-1 -1 -9 -7.5t-12.5 -9.5l-12.5 -8.5t-16 -7.5t-16 -2v0q-8 0 -16 2.5t-16 7.5l-12.5 8t-12.5 9.5t-9 7.5l-62 50v-117z" />
    <glyph glyph-name="university" unicode="University" 
d="M496 0q7 0 11.5 -4.5t4.5 -11.5v-8q0 -8 -8 -8h-496q-8 0 -8 8v8q0 7 4.5 11.5t11.5 4.5h16v40q0 10 7 17t17 7h40v176h32v-176h64v176h32v-176h64v176h32v-176h64v176h32v-176h40q10 0 17 -7t7 -17v-40h16zM64 32v-32h384v32h-384zM504 312q8 -3 8 -11v-9q0 -12 -12 -12
h-20v-12q0 -12 -12 -12h-424q-12 0 -12 12v12h-20q-12 0 -12 12v9q0 8 8 11l233 102q7 2 15 2t15 -2zM448 288v14l-188 81q-2 1 -4 1t-4 -1l-188 -81v-14h384z" />
    <glyph glyph-name="graduation-cap" unicode="Graduation&#x2d;Cap" horiz-adv-x="640" 
d="M612 294q28 -9 28 -38t-28 -38l-115 -37l15 -117q0 -27 -56 -45.5t-136 -18.5t-136 18.5t-56 45.5l15 117l-54 17q-4 -6 -6 -13q13 -9 13 -25q0 -20 -18 -29l18 -112q1 -7 -2.5 -13t-9.5 -6h-40q-6 0 -9.5 6t-2.5 13l18 112q-18 9 -18 29t18 29q3 10 8 19l-30 10
q-28 9 -28 38t28 38l265 86q27 8 54 0zM479 66l-13 105l-119 -39q-27 -8 -54 0l-119 39l-13 -105q10 -11 53 -22.5t106 -11.5t106 11.5t53 22.5zM602 248q6 2 6 8t-6 8l-265 85q-17 6 -34 0l-265 -85q-6 -2 -6 -8t6 -8l42 -13q16 11 33 15l204 38q6 1 12 -3t7 -10.5t-3 -12
t-10 -6.5l-196 -36l176 -57q17 -6 34 0z" />
    <glyph glyph-name="language" unicode="Language" horiz-adv-x="640" 
d="M616 352q10 0 17 -7t7 -17v-272q0 -10 -7 -17t-17 -7h-592q-10 0 -17 7t-7 17v272q0 10 7 17t17 7h592zM304 64v256h-272v-256h272zM608 64v256h-272v-256h272zM91 96q-6 0 -9.5 5t-1.5 11l59 168q3 8 11 8h20q8 0 11 -8l59 -168q2 -6 -1.5 -11t-9.5 -5h-10q-9 0 -12 8
l-13 41h-68l-13 -41q-3 -8 -12 -8h-10zM152 225l-17 -51h50l-17 51l-8 30q-4 -19 -8 -30zM384 236v8q0 12 12 12h68v20q0 12 12 12h8q12 0 12 -12v-20h68q12 0 12 -12v-8q0 -12 -12 -12h-16q-11 -37 -45 -75q16 -14 31 -24q10 -6 4 -16l-4 -7q-6 -11 -17 -4q-19 12 -36 29
q-18 -17 -38 -29q-11 -7 -17 4l-4 7q-6 10 4 16q17 11 32 24q-14 17 -26 33q-7 11 4 17l7 5q10 5 16 -4q10 -14 22 -28q23 26 33 52h-118q-12 0 -12 12z" />
    <glyph glyph-name="fax" unicode="Fax" 
d="M272 16q-7 0 -11.5 4.5t-4.5 11.5v32q0 7 4.5 11.5t11.5 4.5h32q7 0 11.5 -4.5t4.5 -11.5v-32q0 -7 -4.5 -11.5t-11.5 -4.5h-32zM272 112q-7 0 -11.5 4.5t-4.5 11.5v32q0 7 4.5 11.5t11.5 4.5h32q7 0 11.5 -4.5t4.5 -11.5v-32q0 -7 -4.5 -11.5t-11.5 -4.5h-32zM368 16
q-7 0 -11.5 4.5t-4.5 11.5v32q0 7 4.5 11.5t11.5 4.5h32q7 0 11.5 -4.5t4.5 -11.5v-32q0 -7 -4.5 -11.5t-11.5 -4.5h-32zM368 112q-7 0 -11.5 4.5t-4.5 11.5v32q0 7 4.5 11.5t11.5 4.5h32q7 0 11.5 -4.5t4.5 -11.5v-32q0 -7 -4.5 -11.5t-11.5 -4.5h-32zM80 320q20 0 34 -14
t14 -34v-288q0 -20 -14 -34t-34 -14h-32q-20 0 -34 14t-14 34v288q0 20 14 34t34 14h32zM96 -16v288q0 7 -4.5 11.5t-11.5 4.5h-32q-7 0 -11.5 -4.5t-4.5 -11.5v-288q0 -7 4.5 -11.5t11.5 -4.5h32q7 0 11.5 4.5t4.5 11.5zM480 285q14 -5 23 -17.5t9 -27.5v-256
q0 -20 -14 -34t-34 -14h-256q-20 0 -34 14t-14 34v416q0 20 14 34t34 14h163q13 0 22 -9l78 -78q9 -9 9 -22v-54zM384 403v-51h51zM192 400v-144h256v64h-64q-13 0 -22.5 9.5t-9.5 22.5v64h-144q-7 0 -11.5 -4.5t-4.5 -11.5zM480 -16v240h-288v-240q0 -7 4.5 -11.5
t11.5 -4.5h256q7 0 11.5 4.5t4.5 11.5z" />
    <glyph glyph-name="building" unicode="Building" horiz-adv-x="448" 
d="M192 341v-40q0 -12 -12 -12h-40q-12 0 -12 12v40q0 12 12 12h40q12 0 12 -12zM308 353q12 0 12 -12v-40q0 -12 -12 -12h-40q-12 0 -12 12v40q0 12 12 12h40zM180 257q12 0 12 -12v-40q0 -12 -12 -12h-40q-12 0 -12 12v40q0 12 12 12h40zM308 257q12 0 12 -12v-40
q0 -12 -12 -12h-40q-12 0 -12 12v40q0 12 12 12h40zM180 161q12 0 12 -12v-40q0 -12 -12 -12h-40q-12 0 -12 12v40q0 12 12 12h40zM308 161q12 0 12 -12v-40q0 -12 -12 -12h-40q-12 0 -12 12v40q0 12 12 12h40zM448 -44v-20h-448v20q0 12 12 12h20v456q0 10 7 17t17 7h336
q10 0 17 -7t7 -17v-456h20q12 0 12 -12zM384 -32v448h-320v-448h128v85q0 12 12 12h40q12 0 12 -12v-85h128z" />
    <glyph glyph-name="child" unicode="Child" horiz-adv-x="448" 
d="M413.5 357.5q18.5 -18.5 18.5 -45.5t-19 -45l-77 -78v-197q0 -23 -16.5 -39.5t-39.5 -16.5h-16q-24 0 -40 17q-16 -17 -40 -17h-16q-23 0 -39.5 16.5t-16.5 39.5v197l-77 78q-19 18 -19 45t18.5 45.5t44.5 18.5t49 -22q1 39 29 66.5t67 27.5t67 -27.5t29 -66.5
q23 22 49 22t44.5 -18.5zM224 416q-27 0 -45.5 -18.5t-18.5 -45.5t18.5 -45.5t45.5 -18.5t45.5 18.5t18.5 45.5t-18.5 45.5t-45.5 18.5zM391 289q9 10 9 23t-9.5 22.5t-22.5 9.5t-23 -9l-78 -79h-86l-78 79q-10 9 -23 9t-22.5 -9.5t-9.5 -22.5t9 -23l87 -86v-211
q0 -10 7 -17t17 -7h16q10 0 17 7t7 17v112h32v-112q0 -10 7 -17t17 -7h16q10 0 17 7t7 17v211z" />
    <glyph glyph-name="paw" unicode="Paw" 
d="M256 224q38 0 84 -33.5t77 -81t31 -85.5q0 -26 -19 -41t-53 -15q-25 0 -63 12.5t-57 12.5q-18 0 -56.5 -12.5t-63.5 -12.5q-34 0 -53 15t-19 41q0 38 31 85.5t77 81t84 33.5zM376 0q40 0 40 24q0 47 -57.5 107.5t-102.5 60.5t-102.5 -60.5t-57.5 -107.5q0 -24 40 -24
q20 0 57 12q39 13 63 13t64 -13q36 -12 56 -12zM475 287q22 -5 32 -27.5t2 -48.5q-7 -22 -24 -36.5t-37 -14.5q-6 0 -11 1q-22 5 -32 27.5t-2 48.5q7 22 24 36.5t37 14.5q6 0 11 -1zM478 221q5 16 -2 27q-3 6 -9 8h-3q-8 0 -17 -8t-13 -21q-5 -16 2 -27q3 -6 9 -8h3
q8 0 17 8t13 21zM319 257q-24 6 -34 33.5t-1 60.5q8 28 27 46.5t40 18.5q5 0 10 -1q24 -6 34 -33.5t1 -60.5q-8 -28 -27 -46.5t-40 -18.5q-5 0 -10 1zM315 342q-8 -27 3 -46q4 -6 9 -8h2q9 0 20 11.5t16 30.5q8 27 -3 46q-4 6 -9 8h-2q-9 0 -20 -11.5t-16 -30.5zM183 256
q-21 0 -40 18.5t-27 46.5q-9 33 1 60.5t34 33.5q5 1 10 1q21 0 40 -18.5t27 -46.5q9 -33 -1 -60.5t-34 -33.5q-5 -1 -10 -1zM150 376q-11 -19 -3 -46q5 -19 16 -30.5t20 -11.5h2q5 2 9 8q11 19 3 46q-5 19 -16 30.5t-20 11.5h-2q-5 -2 -9 -8zM75 161q-5 -1 -11 -1
q-20 0 -37 14.5t-24 36.5q-8 26 2 48.5t32 27.5q5 1 11 1q20 0 37 -14.5t24 -36.5q8 -26 -2 -48.5t-32 -27.5zM34 221q4 -13 13 -21t17 -8h3q6 2 9 8q7 11 2 27q-4 13 -13 21t-17 8h-3q-6 -2 -9 -8q-7 -11 -2 -27z" />
    <glyph glyph-name="cube" unicode="Cube" 
d="M239 442q17 6 34 0l208 -78q14 -6 22.5 -18t8.5 -27v-225q0 -30 -27 -43l-208 -104q-21 -11 -43 0l-208 104q-26 13 -26 43v225q0 15 8.5 27t22.5 18zM256 414l-224 -84l224 -98l224 98zM32 295v-211l208 -104v224zM272 -20l208 104v211l-208 -91v-224z" />
    <glyph glyph-name="cubes" unicode="Cubes" 
d="M489 191q23 -8 23 -33v-102q0 -22 -20 -32l-96 -48q-16 -8 -32 0l-108 54l-108 -54q-16 -8 -32 0l-96 48q-20 10 -20 32v102q0 25 23 33l101 38v111q0 25 23 34l96 36q13 5 26 0l96 -36q23 -9 23 -34v-111zM16 44l108 -53v115l-108 47v-109zM248 44v109l-108 -47v-115z
M248 171l-9 3l-108 40l-115 -43l116 -50zM248 191v98l-108 47v-107l55 -21zM140 354l116 -50l116 50l-116 43zM264 289v-98l53 17l54 21v107zM372 -9v115l-107 47v-109zM496 44v109l-108 -47v-115zM496 171l-115 43l-108 -40l-9 -3l116 -50z" />
    <glyph glyph-name="recycle" unicode="Recycle" 
d="M202 386l-44 -70q-6 -10 -16 -3l-7 4q-10 6 -4 16l44 70q28 45 81 45t81 -45l47 -74l12 52q2 12 14 9l8 -2q12 -2 9 -14l-22 -94q-2 -12 -14 -9l-94 22q-12 2 -9 14l2 8q3 12 14 9l53 -12l-47 74q-18 30 -53.5 30t-54.5 -30zM497 147q18 -34 13.5 -66.5t-31.5 -56.5
t-63 -24h-105l37 -38q9 -8 0 -17l-5 -5q-9 -9 -17 0l-68 68q-9 8 0 16l68 68q8 9 17 0l5 -5q9 -9 0 -17l-37 -38h105q38 0 56 33t-2 65l-53 85q-6 10 4 16l7 4q10 7 16 -3zM42 130q-20 -32 -2 -65t56 -33h100q12 0 12 -12v-8q0 -12 -12 -12h-100q-36 0 -63 24t-31.5 56.5
t13.5 66.5l56 89l-53 -12q-11 -3 -14 9l-2 8q-3 12 9 14l94 22q12 3 14 -9l22 -94q3 -11 -9 -14l-8 -2q-12 -3 -14 9l-12 52z" />
    <glyph glyph-name="car" unicode="Car" 
d="M121 200q19 0 37 -15t18 -33q0 -32 -45 -32h-10q-20 0 -32.5 11.5t-12.5 28.5t12.5 28.5t32.5 11.5zM131 144q21 0 21 8q0 7 -11 15.5t-20 8.5q-21 0 -21 -16t21 -16h4.5h5.5zM391 200q20 0 32.5 -11.5t12.5 -28.5t-12.5 -28.5t-32.5 -11.5h-10q-45 0 -45 32q0 18 18 33
t37 15zM391 144q21 0 21 16t-21 16q-9 0 -20 -8.5t-11 -15.5q0 -8 21 -8h5.5h4.5zM506 285q12 -19 2 -39l-6 -11q-6 -12 -17 -19q11 -19 11 -40v-128q0 -20 -14 -34t-34 -14h-16q-20 0 -34 14t-14 34v16h-256v-16q0 -20 -14 -34t-34 -14h-16q-20 0 -34 14t-14 34v128
q0 21 11 40q-11 7 -17 19l-6 11q-10 20 2 39t34 19h50l8 25q8 24 29 39.5t47 15.5h164q26 0 47 -15.5t29 -39.5l8 -25h50q22 0 34 -19zM128 319l-20 -63h296l-20 63q-5 15 -17.5 24t-28.5 9h-164q-16 0 -28.5 -9t-17.5 -24zM39 249q3 -6 11 -8q10 7 23 11l6 20h-39
q-4 0 -6.5 -4t-0.5 -8zM96 48v16h-48v-16q0 -7 4.5 -11.5t11.5 -4.5h16q7 0 11.5 4.5t4.5 11.5zM464 48v16h-48v-16q0 -7 4.5 -11.5t11.5 -4.5h16q7 0 11.5 4.5t4.5 11.5zM464 128v48q0 20 -14 34t-34 14h-320q-20 0 -34 -14t-14 -34v-80h416v32zM479 260q2 4 -0.5 8t-6.5 4
h-39l6 -20q12 -4 23 -11q8 2 11 8z" />
    <glyph glyph-name="taxi" unicode="Taxi" 
d="M96 160q13 0 22.5 -9.5t9.5 -22.5t-9.5 -22.5t-22.5 -9.5t-22.5 9.5t-9.5 22.5t9.5 22.5t22.5 9.5zM416 160q13 0 22.5 -9.5t9.5 -22.5t-9.5 -22.5t-22.5 -9.5t-22.5 9.5t-9.5 22.5t9.5 22.5t22.5 9.5zM328 128q8 0 8 -8v-16q0 -8 -8 -8h-144q-8 0 -8 8v16q0 8 8 8h144z
M447 218q29 -9 47 -34t18 -56v-32q0 -36 -32 -55v-41q0 -13 -9.5 -22.5t-22.5 -9.5h-48q-13 0 -22.5 9.5t-9.5 22.5v32h-224v-32q0 -13 -9.5 -22.5t-22.5 -9.5h-48q-13 0 -22.5 9.5t-9.5 22.5v41q-32 18 -32 55v32q0 31 18 56t47 34l13 69q6 28 28 46.5t51 18.5h3v32
q0 13 9.5 22.5t22.5 9.5h128q13 0 22.5 -9.5t9.5 -22.5v-32h3q29 0 51 -18.5t28 -46.5zM192 384v-32h128v32h-128zM110 281l-11 -57h314l-11 57q-3 17 -16.5 28t-30.5 11h-198q-17 0 -30.5 -11t-16.5 -28zM112 0v32h-48v-32h48zM448 0v32h-48v-32h48zM480 96v32q0 26 -19 45
t-45 19h-320q-26 0 -45 -19t-19 -45v-32q0 -13 9.5 -22.5t22.5 -9.5h384q13 0 22.5 9.5t9.5 22.5z" />
    <glyph glyph-name="tree" unicode="Tree" horiz-adv-x="448" 
d="M444 59q7 -8 2.5 -17.5t-14.5 -9.5h-160v-24l24 -49q4 -8 -0.5 -15.5t-13.5 -7.5h-116q-9 0 -13.5 7.5t-0.5 15.5l24 49v24h-160q-10 0 -14.5 9.5t2.5 17.5l74 85h-30q-10 0 -14.5 9.5t2.5 16.5l72 86h-28q-10 0 -15 10q-1 3 -1 6q0 6 4 11l144 160q5 5 12 5t12 -5
l144 -160q7 -8 2.5 -17.5t-14.5 -9.5h-28l72 -86q7 -7 2.5 -16.5t-14.5 -9.5h-30zM192 -32h64l-16 32v32h-32v-32zM51 64h346l-96 112h65l-95 112h61l-108 120l-108 -120h61l-95 -112h65z" />
    <glyph glyph-name="database" unicode="Database" horiz-adv-x="448" 
d="M224 416q-79 0 -135.5 -19t-56.5 -45v-32q0 -26 56.5 -45t135.5 -19t135.5 19t56.5 45v32q0 26 -56.5 45t-135.5 19zM416 266q-60 -42 -192 -42t-192 42v-42q0 -26 56.5 -45t135.5 -19t135.5 19t56.5 45v42zM416 170q-60 -42 -192 -42t-192 42v-42q0 -26 56.5 -45
t135.5 -19t135.5 19t56.5 45v42zM416 74q-60 -42 -192 -42t-192 42v-42q0 -26 56.5 -45t135.5 -19t135.5 19t56.5 45v42zM224 448q33 0 68.5 -4.5t72 -14.5t60 -30t23.5 -47v-320q0 -27 -23.5 -47t-60 -30t-71.5 -14.5t-69 -4.5q-33 0 -68.5 4.5t-72 14.5t-60 30t-23.5 47
v320q0 27 23.5 47t60 30t71.5 14.5t69 4.5z" />
    <glyph glyph-name="file-pdf" unicode="File&#x2d;Pdf" horiz-adv-x="384" 
d="M370 350q14 -14 14 -34v-332q0 -20 -14 -34t-34 -14h-288q-20 0 -34 14t-14 34v416q0 20 14 34t34 14h204q20 0 34 -14zM347 327l-84 84q-3 3 -7 5v-96h96q-2 4 -5 7zM336 -32q7 0 11.5 4.5t4.5 11.5v304h-104q-10 0 -17 7t-7 17v104h-176q-7 0 -11.5 -4.5t-4.5 -11.5
v-416q0 -7 4.5 -11.5t11.5 -4.5h288zM314 139q10 -8 5 -24t-23 -16q-29 0 -65 19q-18 -2 -82 -24q-18 -30 -31 -45q-14 -15 -28 -16.5t-20.5 6t-5.5 16.5q6 25 59 53q19 32 42 88q-14 56 -8 78q2 9 12 12.5t20.5 -1t12.5 -18.5q5 -16 -7 -65q15 -38 45 -56q59 8 74 -7z
M85 50q0 -1 4 2t12.5 13t18.5 26q-31 -29 -35 -41zM180 272q-1 0 -1.5 -8t0.5 -20t3 -19q5 7 4.5 27t-6.5 20zM152 113q51 20 64 22q-22 16 -36 42q-15 -40 -28 -64zM305 119q6 4 -6.5 7.5t-36.5 1.5q16 -7 27 -9.5t14 -0.5z" />
    <glyph glyph-name="file-word" unicode="File&#x2d;Word" horiz-adv-x="384" 
d="M370 350q14 -14 14 -34v-332q0 -20 -14 -34t-34 -14h-288q-20 0 -34 14t-14 34v416q0 20 14 34t34 14h204q20 0 34 -14zM347 327l-84 84q-3 3 -7 5v-96h96q-2 4 -5 7zM336 -32q7 0 11.5 4.5t4.5 11.5v304h-104q-10 0 -17 7t-7 17v104h-176q-7 0 -11.5 -4.5t-4.5 -11.5
v-416q0 -7 4.5 -11.5t11.5 -4.5h288zM282 214q2 10 12 10h7q6 0 9.5 -4.5t2.5 -10.5l-43 -168q-3 -9 -15 -9h-14q-10 0 -12 9q-31 115 -37 143q-2 -15 -36 -143q-3 -9 -12 -9h-17q-9 0 -11 9l-43 168q-1 6 2.5 10.5t9.5 4.5h7q10 0 12 -9q27 -114 34 -155q3 18 40 155
q2 9 11 9h7q9 0 11 -9l23 -82.5t11.5 -40t4 -13t3.5 -15.5q0 5 7 35l15.5 66.5t10.5 48.5z" />
    <glyph glyph-name="file-excel" unicode="File&#x2d;Excel" horiz-adv-x="384" 
d="M370 350q14 -14 14 -34v-332q0 -20 -14 -34t-34 -14h-288q-20 0 -34 14t-14 34v416q0 20 14 34t34 14h204q20 0 34 -14zM347 327l-84 84q-3 3 -7 5v-96h96q-2 4 -5 7zM336 -32q7 0 11.5 4.5t4.5 11.5v304h-104q-10 0 -17 7t-7 17v104h-176q-7 0 -11.5 -4.5t-4.5 -11.5
v-416q0 -7 4.5 -11.5t11.5 -4.5h288zM212 140l58 -90q4 -6 0.5 -12t-10.5 -6h-4q-6 0 -10 5q-2 4 -10 14.5t-19 27t-25 41.5q-4 -9 -9 -16l-17.5 -25l-27.5 -41q-4 -6 -10 -6h-4q-7 0 -10.5 6t0.5 12l59 90l-51 82q-4 6 -0.5 12t10.5 6h4q7 0 10 -6q37 -57 46 -74
q3 8 7 14.5l7.5 12l13 19.5l18.5 28q3 6 10 6h4q7 0 10.5 -6t-0.5 -12z" />
    <glyph glyph-name="file-powerpoint" unicode="File&#x2d;Powerpoint" horiz-adv-x="384" 
d="M370 350q14 -14 14 -34v-332q0 -20 -14 -34t-34 -14h-288q-20 0 -34 14t-14 34v416q0 20 14 34t34 14h204q20 0 34 -14zM347 327l-84 84q-3 3 -7 5v-96h96q-2 4 -5 7zM336 -32q7 0 11.5 4.5t4.5 11.5v304h-104q-10 0 -17 7t-7 17v104h-176q-7 0 -11.5 -4.5t-4.5 -11.5
v-416q0 -7 4.5 -11.5t11.5 -4.5h288zM204 240q32 0 50 -18.5t18 -48.5t-19 -49.5t-49 -19.5h-44v-60q0 -12 -12 -12h-8q-12 0 -12 12v184q0 12 12 12h64zM230.5 142.5q11.5 11.5 11.5 31t-12 30.5q-11 11 -30 11h-40v-84h39q20 0 31.5 11.5z" />
    <glyph glyph-name="file-image" unicode="File&#x2d;Image" horiz-adv-x="384" 
d="M159 112l87 88q9 8 18 0l55 -56v-144h-256l1 112l38 40q9 8 18 0zM255 163l-96 -96l-48 48l-16 -16v-67h192v99zM127 192q-26 0 -45 19t-19 45t19 45t45 19t45 -19t19 -45t-19 -45t-45 -19zM127 288q-13 0 -22.5 -9.5t-9.5 -22.5t9.5 -22.5t22.5 -9.5t22.5 9.5t9.5 22.5
t-9.5 22.5t-22.5 9.5zM370 350q14 -14 14 -34v-332q0 -20 -14 -34t-34 -14h-288q-20 0 -34 14t-14 34v416q0 20 14 34t34 14h204q20 0 34 -14zM256 416v-96h96q-2 4 -5 7l-84 84q-3 3 -7 5zM352 -16v304h-104q-10 0 -17 7t-7 17v104h-176q-7 0 -11.5 -4.5t-4.5 -11.5v-416
q0 -7 4.5 -11.5t11.5 -4.5h288q7 0 11.5 4.5t4.5 11.5z" />
    <glyph glyph-name="file-archive" unicode="File&#x2d;Archive" horiz-adv-x="384" 
d="M128 352h32v-32h-32v32zM194 182l17 -87q5 -25 -10.5 -44t-40.5 -19t-40.5 19t-10.5 44l19 97v32h32v-32h22q10 0 12 -10zM160.5 58q13.5 0 23 8t9.5 19t-9.5 19t-23 8t-23 -8t-9.5 -19t9.5 -19t23 -8zM128 288h32v-32h-32v32zM192 384v-32h-32v32h32zM370 350
q14 -14 14 -34v-332q0 -20 -14 -34t-34 -14h-288q-20 0 -34 14t-14 34v416q0 20 14 34t34 14h204q20 0 34 -14zM256 416v-96h96q-2 4 -5 7l-84 84q-3 3 -7 5zM352 -16v304h-104q-10 0 -17 7t-7 17v104h-64v-32h-32v32h-80q-7 0 -11.5 -4.5t-4.5 -11.5v-416q0 -7 4.5 -11.5
t11.5 -4.5h288q7 0 11.5 4.5t4.5 11.5zM192 256v-32h-32v32h32zM192 320v-32h-32v32h32z" />
    <glyph glyph-name="file-audio" unicode="File&#x2d;Audio" horiz-adv-x="384" 
d="M370 350q14 -14 14 -34v-332q0 -20 -14 -34t-34 -14h-288q-20 0 -34 14t-14 34v416q0 20 14 34t34 14h204q20 0 34 -14zM347 327l-84 84q-3 3 -7 5v-96h96q-2 4 -5 7zM336 -32q7 0 11.5 4.5t4.5 11.5v304h-104q-10 0 -17 7t-7 17v104h-176q-7 0 -11.5 -4.5t-4.5 -11.5
v-416q0 -7 4.5 -11.5t11.5 -4.5h288zM258 35q-3 -3 -8 -3q-8 0 -12 7q-9 12 4 20q48 33 48 91q0 29 -14.5 54.5t-39.5 40.5q-13 7 -5 20t21 5q31 -18 49 -50q19 -32 19 -70q0 -34 -16.5 -65t-45.5 -50zM232 73q-4 -3 -8 -3q-9 0 -13 7q-8 13 4 21q28 19 28 52q0 37 -31 55
q-13 7 -5.5 20t20.5 6q21 -13 33.5 -34.5t12.5 -46.5q0 -49 -41 -77zM205 111q-4 -2 -8 -2q-8 0 -13 7q-8 13 5 21q8 4 8 13q0 10 -9 14q-13 8 -6 21t20 6q25 -13 25 -41q0 -25 -22 -39zM138 181l-26 -19h-18v-36h18l26 -19v74zM156 232q5 0 8.5 -3.5t3.5 -8.5v-152
q0 -5 -3.5 -8.5t-8.5 -3.5t-8 4l-44 36h-28q-12 0 -12 12v72q0 12 12 12h28l44 36q3 4 8 4z" />
    <glyph glyph-name="file-video" unicode="File&#x2d;Video" horiz-adv-x="384" 
d="M224 167v-10l28 28q7 7 17 7h27q10 0 17 -7t7 -17v-112q0 -10 -7 -17t-17 -7h-27q-10 0 -17 7l-28 28v-10q0 -11 -7 -18t-18 -7h-110q-11 0 -18 7t-7 18v110q0 11 7 18t18 7h110q11 0 18 -7t7 -18zM192 64v96h-96v-96h96zM272 160l-48 -41v-14l48 -41h16v96h-16zM370 350
q14 -14 14 -34v-332q0 -20 -14 -34t-34 -14h-288q-20 0 -34 14t-14 34v416q0 20 14 34t34 14h204q20 0 34 -14zM256 416v-96h96q-2 4 -5 7l-84 84q-3 3 -7 5zM352 -16v304h-104q-10 0 -17 7t-7 17v104h-176q-7 0 -11.5 -4.5t-4.5 -11.5v-416q0 -7 4.5 -11.5t11.5 -4.5h288
q7 0 11.5 4.5t4.5 11.5z" />
    <glyph glyph-name="file-code" unicode="File&#x2d;Code" horiz-adv-x="384" 
d="M370 350q14 -14 14 -34v-332q0 -20 -14 -34t-34 -14h-288q-20 0 -34 14t-14 34v416q0 20 14 34t34 14h204q20 0 34 -14zM347 327l-84 84q-3 3 -7 5v-96h96q-2 4 -5 7zM336 -32q7 0 11.5 4.5t4.5 11.5v304h-104q-10 0 -17 7t-7 17v104h-176q-7 0 -11.5 -4.5t-4.5 -11.5
v-416q0 -7 4.5 -11.5t11.5 -4.5h288zM175 35l-26 8q-4 1 -4 5v1l58 200q1 4 5 4h1l26 -8q4 -1 4 -5v-1l-58 -200q-1 -4 -5 -4h-1zM126 83q-1 -2 -3.5 -2t-3.5 2l-61 57q-2 2 -2 4t2 4l61 57q1 2 3.5 2t3.5 -2l19 -20q1 -1 1 -3q0 -3 -2 -4l-38 -34l38 -34q2 -1 2 -4
q0 -2 -1 -3zM265 83q-1 -2 -3.5 -2t-3.5 2l-19 20q-1 1 -1 3q0 3 2 4l38 34l-38 34q-2 1 -2 4q0 2 1 3l19 20q1 2 3.5 2t3.5 -2l61 -57q2 -2 2 -4t-2 -4z" />
    <glyph glyph-name="life-ring" unicode="Life&#x2d;Ring" 
d="M256 440q103 0 175.5 -72.5t72.5 -175.5t-72.5 -175.5t-175.5 -72.5t-175.5 72.5t-72.5 175.5t72.5 175.5t175.5 72.5zM425 327q-15 19 -34 34l-63 -63q20 -14 34 -34zM256 96q40 0 68 28t28 68t-28 68t-68 28t-68 -28t-28 -68t28 -68t68 -28zM364 379q-50 29 -108 29
t-108 -29l66 -66q42 14 84 0zM121 361q-19 -15 -34 -34l63 -63q14 20 34 34zM69 300q-29 -50 -29 -108t29 -108l66 66q-14 42 0 84zM87 57q15 -19 34 -34l63 63q-20 14 -34 34zM148 5q50 -29 108 -29t108 29l-66 66q-42 -14 -84 0zM391 23q19 15 34 34l-63 63
q-14 -20 -34 -34zM443 84q29 50 29 108t-29 108l-66 -66q14 -42 0 -84z" />
    <glyph glyph-name="circle-notch" unicode="Circle&#x2d;Notch" 
d="M288 424q0 6 4.5 9.5t9.5 2.5q87 -17 144.5 -85.5t57.5 -158.5q0 -103 -72.5 -175.5t-174.5 -72.5q-103 0 -175.5 72t-73.5 175q0 90 57.5 159t144.5 86q5 1 9.5 -2.5t4.5 -9.5v-8q0 -10 -10 -12q-75 -15 -124.5 -74.5t-49.5 -137.5q0 -90 63.5 -153t152.5 -63
q90 0 153 63.5t63 152.5q0 78 -49.5 137.5t-124.5 74.5q-10 2 -10 12v8z" />
    <glyph glyph-name="paper-plane" unicode="Paper&#x2d;Plane" 
d="M464 444q17 10 34 -1.5t14 -31.5l-64 -417q-3 -15 -16.5 -23t-27.5 -2l-127 53l-60 -74q-14 -18 -35.5 -10.5t-21.5 30.5v102l-140 58q-19 8 -20 27.5t16 29.5zM192 -32l54 66l-54 23v-89zM416 -1l64 417l-448 -258l114 -47l255 217q4 4 8 0t0 -8l-199 -236z" />
    <glyph glyph-name="history" unicode="History" 
d="M20 424h10q12 0 12 -12v-95q33 57 90 90t125 33q102 0 174.5 -73t72.5 -175q0 -103 -72.5 -175.5t-175.5 -72.5q-95 0 -166 64q-10 8 -1 17l7 7q8 8 17 1q61 -55 143 -55q88 0 151 62.5t63 151.5q0 88 -62.5 151t-151.5 63q-61 0 -112 -31.5t-78 -84.5h98q12 0 12 -12
v-10q0 -12 -12 -12h-144q-12 0 -12 12v144q0 12 12 12zM342 109q-7 -10 -17 -3l-85 62v164q0 12 12 12h8q12 0 12 -12v-148l72 -52q9 -7 2 -17z" />
    <glyph glyph-name="heading" unicode="Heading" 
d="M416 384v-384h56q8 0 8 -8v-16q0 -8 -8 -8h-144q-8 0 -8 8v16q0 8 8 8h56v176h-256v-176h56q8 0 8 -8v-16q0 -8 -8 -8h-144q-8 0 -8 8v16q0 8 8 8h56v384h-56q-8 0 -8 8v16q0 8 8 8h144q8 0 8 -8v-16q0 -8 -8 -8h-56v-176h256v176h-56q-8 0 -8 8v16q0 8 8 8h144q8 0 8 -8
v-16q0 -8 -8 -8h-56z" />
    <glyph glyph-name="paragraph" unicode="Paragraph" horiz-adv-x="448" 
d="M440 416q8 0 8 -8v-16q0 -8 -8 -8h-56v-408q0 -8 -8 -8h-16q-8 0 -8 8v408h-64v-408q0 -8 -8 -8h-16q-8 0 -8 8v120h-27q-64 0 -112.5 43t-52.5 106v11q0 66 47 113t113 47h216zM256 128v256h-32q-53 0 -90.5 -37.5t-37.5 -90.5t37.5 -90.5t90.5 -37.5h32z" />
    <glyph glyph-name="sliders-h" unicode="Sliders&#x2d;H" 
d="M504 64q8 0 8 -8v-16q0 -8 -8 -8h-312v-40q0 -10 -7 -17t-17 -7h-48q-10 0 -17 7t-7 17v40h-88q-8 0 -8 8v16q0 8 8 8h88v40q0 10 7 17t17 7h48q10 0 17 -7t7 -17v-40h312zM160 0v96h-32v-96h32zM504 352q8 0 8 -8v-16q0 -8 -8 -8h-248v-40q0 -10 -7 -17t-17 -7h-48
q-10 0 -17 7t-7 17v40h-152q-8 0 -8 8v16q0 8 8 8h152v40q0 10 7 17t17 7h48q10 0 17 -7t7 -17v-40h248zM224 288v96h-32v-96h32zM504 208q8 0 8 -8v-16q0 -8 -8 -8h-88v-40q0 -10 -7 -17t-17 -7h-48q-10 0 -17 7t-7 17v40h-312q-8 0 -8 8v16q0 8 8 8h312v40q0 10 7 17t17 7
h48q10 0 17 -7t7 -17v-40h88zM384 144v96h-32v-96h32z" />
    <glyph glyph-name="share-alt" unicode="Share&#x2d;Alt" horiz-adv-x="448" 
d="M352 128q40 0 68 -28t28 -68t-28 -68t-68 -28t-68 28t-28 68q0 19 7 37l-95 59q-29 -32 -72 -32q-40 0 -68 28t-28 68t28 68t68 28q43 0 72 -32l95 59q-7 18 -7 37q0 40 28 68t68 28t68 -28t28 -68t-28 -68t-68 -28q-43 0 -72 32l-95 -59q15 -37 0 -74l95 -59
q29 32 72 32zM352 416q-26 0 -45 -19t-19 -45t19 -45t45 -19t45 19t19 45t-19 45t-45 19zM96 128q26 0 45 19t19 45t-19 45t-45 19t-45 -19t-19 -45t19 -45t45 -19zM352 -32q26 0 45 19t19 45t-19 45t-45 19t-45 -19t-19 -45t19 -45t45 -19z" />
    <glyph glyph-name="share-alt-square" unicode="Share&#x2d;Alt&#x2d;Square" horiz-adv-x="448" 
d="M288 216q-24 0 -41 18l-49 -25q5 -17 0 -34l49 -25q17 18 41 18q23 0 39.5 -16.5t16.5 -39.5t-16.5 -39.5t-39.5 -16.5t-39.5 16.5t-16.5 39.5q0 4 1 10l-54 26q-15 -12 -35 -12q-23 0 -39.5 16.5t-16.5 39.5t16.5 39.5t39.5 16.5q20 0 35 -12l54 26q-1 5 -1 10
q0 23 16.5 39.5t39.5 16.5t39.5 -16.5t16.5 -39.5t-16.5 -39.5t-39.5 -16.5zM288 296q-10 0 -17 -7t-7 -17t7 -17t17 -7t17 7t7 17t-7 17t-17 7zM144 168q10 0 17 7t7 17t-7 17t-17 7t-17 -7t-7 -17t7 -17t17 -7zM288 136q-10 0 -17 -7t-7 -17t7 -17t17 -7t17 7t7 17t-7 17
t-17 7zM400 416q20 0 34 -14t14 -34v-352q0 -20 -14 -34t-34 -14h-352q-20 0 -34 14t-14 34v352q0 20 14 34t34 14h352zM416 16v352q0 7 -4.5 11.5t-11.5 4.5h-352q-7 0 -11.5 -4.5t-4.5 -11.5v-352q0 -7 4.5 -11.5t11.5 -4.5h352q7 0 11.5 4.5t4.5 11.5z" />
    <glyph glyph-name="bomb" unicode="Bomb" 
d="M421 379l22 -22l-56 -56l38 -38q10 -10 10 -23t-10 -23l-17 -17q8 -27 8 -56q0 -86 -61 -147t-147 -61q-88 0 -149 63t-59 151q2 84 63 143t145 59q29 0 56 -8l17 17q10 10 23 10t23 -10l38 -38zM372 210l31 30l-99 99l-30 -31q-42 12 -66 12q-71 0 -122.5 -50
t-53.5 -121q-2 -54 27.5 -99.5t78.5 -67.5q33 -14 70 -14q73 0 124.5 52t51.5 124q0 25 -12 66zM512 376q0 -12 -12 -12h-24q-12 0 -12 12t12 12h24q12 0 12 -12zM452 436v-24q0 -12 -12 -12t-12 12v24q0 12 12 12t12 -12zM457 393q-9 9 0 17l17 17q8 9 17 0t0 -17l-17 -17
q-8 -9 -17 0zM389 410q-8 8 0.5 16.5t16.5 0.5l17 -17q9 -9 0.5 -17.5t-17.5 0.5zM491 342q8 -8 -0.5 -16.5t-16.5 -0.5l-17 17q-9 9 -0.5 17.5t17.5 -0.5zM192 256q0 -7 -4.5 -11.5t-11.5 -4.5q-26 0 -45 -19t-19 -45q0 -7 -4.5 -11.5t-11.5 -4.5t-11.5 4.5t-4.5 11.5
q0 40 28 68t68 28q7 0 11.5 -4.5t4.5 -11.5z" />
    <glyph glyph-name="futbol" unicode="Futbol" horiz-adv-x="496" 
d="M484 269q14 -49 11.5 -96t-24 -88.5t-53.5 -72.5t-76.5 -49.5t-93.5 -18.5q-79 0 -145 47t-91 124q-14 49 -11.5 96t24 88.5t53.5 72.5t76.5 49.5t93.5 18.5q79 0 145 -47t91 -124zM441 95q14 29 20 61l-70 65l-29 -9l-33 -104l17 -25zM36 156q5 -32 20 -61l94 -11l18 25
l-34 103l-29 9zM232 337l-83 47q-29 -16 -52 -38l18 -94l31 -10l86 62v33zM382 252l18 94q-23 22 -52 38l-84 -47v-33l86 -62zM166 217l32 -96h101l31 96l-82 59zM464 197q-2 63 -38 116l-13 -68zM309 399q-7 3 -17.5 5.5t-42 3t-62.5 -8.5l61 -34zM70 314q-8 -13 -14 -24
q-22 -44 -24 -92l52 47zM78 60q38 -50 98 -71l-30 63zM216 -21q32 -5 64 0l40 86l-17 24h-110l-17 -24zM320 -11q61 21 99 71l-69 -8z" />
    <glyph glyph-name="tty" unicode="Tty" 
d="M364 -16q12 0 12 -12v-8q0 -12 -12 -12h-216q-12 0 -12 12v8q0 12 12 12h216zM184 52v24q0 12 12 12h24q12 0 12 -12v-24q0 -12 -12 -12h-24q-12 0 -12 12zM136 76v-24q0 -12 -12 -12h-24q-12 0 -12 12v24q0 12 12 12h24q12 0 12 -12zM76 -8q12 0 12 -12v-24
q0 -12 -12 -12h-24q-12 0 -12 12v24q0 12 12 12h24zM52 136q-12 0 -12 12v24q0 12 12 12h24q12 0 12 -12v-24q0 -12 -12 -12h-24zM268 184q12 0 12 -12v-24q0 -12 -12 -12h-24q-12 0 -12 12v24q0 12 12 12h24zM172 184q12 0 12 -12v-24q0 -12 -12 -12h-24q-12 0 -12 12v24
q0 12 12 12h24zM460 184q12 0 12 -12v-24q0 -12 -12 -12h-24q-12 0 -12 12v24q0 12 12 12h24zM502 346q19 -19 5 -41l-41 -65q-6 -11 -17.5 -14.5t-22.5 0.5l-81 33q-10 4 -16 13.5t-5 20.5l5 43q-73 22 -145 0l4 -43q1 -11 -5 -20.5t-16 -13.5l-81 -33q-11 -4 -22.5 -0.5
t-17.5 14.5l-41 65q-14 22 5 41q67 67 156.5 90.5t179 0t156.5 -90.5zM480 322v1q-93 93 -224 93t-223 -93l-1 -1l41 -65q0 -1 1 -1l81 33q1 0 1 1l-7 68q58 21 106 21t108 -21l-7 -68q0 -1 1 -1l81 -33q1 0 1 1zM460 -8q12 0 12 -12v-24q0 -12 -12 -12h-24q-12 0 -12 12v24
q0 12 12 12h24zM280 52v24q0 12 12 12h24q12 0 12 -12v-24q0 -12 -12 -12h-24q-12 0 -12 12zM424 76v-24q0 -12 -12 -12h-24q-12 0 -12 12v24q0 12 12 12h24q12 0 12 -12zM364 136h-24q-12 0 -12 12v24q0 12 12 12h24q12 0 12 -12v-24q0 -12 -12 -12z" />
    <glyph glyph-name="binoculars" unicode="Binoculars" 
d="M512 44v-28q0 -20 -14 -34t-34 -14h-128q-20 0 -34 14t-14 34v144h-64v-144q0 -20 -14 -34t-34 -14h-128q-20 0 -34 14t-14 34v28q2 55 17.5 104t30.5 91.5t16 80.5q0 13 9.5 22.5t22.5 9.5v32q0 13 9.5 22.5t22.5 9.5h64q13 0 22.5 -9.5t9.5 -22.5v-32h64v32
q0 13 9.5 22.5t22.5 9.5h64q13 0 22.5 -9.5t9.5 -22.5v-32q13 0 22.5 -9.5t9.5 -22.5q1 -38 16 -80.5t30.5 -91.5t17.5 -104zM320 384v-32h64v32h-64zM128 384v-32h64v32h-64zM192 16v48h-159l-1 -48q0 -7 4.5 -11.5t11.5 -4.5h128q7 0 11.5 4.5t4.5 11.5zM192 96v224h-96
q-1 -49 -30 -126q-22 -59 -29 -98h155zM224 192h64v128h-64v-128zM320 320v-224h155q-7 39 -29 98q-29 77 -30 125v1h-96zM480 16q-1 41 -1 48h-159v-48q0 -7 4.5 -11.5t11.5 -4.5h128q7 0 11.5 4.5t4.5 11.5z" />
    <glyph glyph-name="plug" unicode="Plug" horiz-adv-x="384" 
d="M360 288q10 0 17 -7t7 -17v-48q0 -10 -7 -17t-17 -7h-8q0 -62 -41.5 -107.5t-102.5 -51.5v-97h-32v97q-61 6 -102.5 51.5t-41.5 107.5h-8q-10 0 -17 7t-7 17v48q0 10 7 17t17 7h336zM352 224v32h-320v-32h32v-32q0 -53 37.5 -90.5t90.5 -37.5t90.5 37.5t37.5 90.5v32h32z
M272 304v128q0 7 4.5 11.5t11.5 4.5t11.5 -4.5t4.5 -11.5v-128h-32zM80 304v128q0 7 4.5 11.5t11.5 4.5t11.5 -4.5t4.5 -11.5v-128h-32z" />
    <glyph glyph-name="newspaper" unicode="Newspaper" horiz-adv-x="576" 
d="M552 384q10 0 17 -7t7 -17v-336q0 -10 -7 -17t-17 -7h-504q-20 0 -34 14t-14 34v280q0 10 7 17t17 7h40v8q0 10 7 17t17 7h464zM32 48q0 -7 4.5 -11.5t11.5 -4.5t11.5 4.5t4.5 11.5v272h-32v-272zM544 32v320h-448v-304q0 -8 -3 -16h451zM140 128q-12 0 -12 12v168
q0 12 12 12h168q12 0 12 -12v-168q0 -12 -12 -12h-168zM160 288v-128h128v128h-128zM128 76v8q0 12 12 12h168q12 0 12 -12v-8q0 -12 -12 -12h-168q-12 0 -12 12zM352 76v8q0 12 12 12h136q12 0 12 -12v-8q0 -12 -12 -12h-136q-12 0 -12 12zM352 140v8q0 12 12 12h136
q12 0 12 -12v-8q0 -12 -12 -12h-136q-12 0 -12 12zM352 268v8q0 12 12 12h136q12 0 12 -12v-8q0 -12 -12 -12h-136q-12 0 -12 12zM352 204v8q0 12 12 12h136q12 0 12 -12v-8q0 -12 -12 -12h-136q-12 0 -12 12z" />
    <glyph glyph-name="wifi" unicode="Wifi" horiz-adv-x="640" 
d="M320 128q33 0 56.5 -23.5t23.5 -56.5t-23.5 -56.5t-56.5 -23.5t-56.5 23.5t-23.5 56.5t23.5 56.5t56.5 23.5zM320 0q20 0 34 14t14 34t-14 34t-34 14t-34 -14t-14 -34t14 -34t34 -14zM636 290q9 -9 0 -17l-5 -6q-9 -8 -17 0q-81 77 -187.5 104t-213 0t-187.5 -104
q-8 -8 -17 0l-5 6q-9 8 0 17q87 83 201.5 112t229 0t201.5 -112zM526 178q9 -9 1 -18l-6 -5q-8 -9 -17 -1q-78 70 -184 70t-184 -70q-9 -8 -17 1l-6 5q-8 9 1 18q88 78 206 78t206 -78z" />
    <glyph glyph-name="calculator" unicode="Calculator" horiz-adv-x="448" 
d="M80 0q-7 0 -11.5 4.5t-4.5 11.5v192q0 7 4.5 11.5t11.5 4.5h288q7 0 11.5 -4.5t4.5 -11.5v-192q0 -7 -4.5 -11.5t-11.5 -4.5h-288zM288 96v-64h64v160h-64v-96zM192 192v-64h64v64h-64zM192 96v-64h64v64h-64zM96 192v-64h64v64h-64zM96 96v-64h64v64h-64zM400 448
q19 0 33.5 -14.5t14.5 -33.5v-416q0 -19 -14.5 -33.5t-33.5 -14.5h-352q-19 0 -33.5 14.5t-14.5 33.5v416q0 19 14.5 33.5t33.5 14.5h352zM416 -16v272h-384v-272q0 -6 5 -11t11 -5h352q6 0 11 5t5 11zM416 288v112q0 6 -5 11t-11 5h-352q-6 0 -11 -5t-5 -11v-112h384z" />
    <glyph glyph-name="bell-slash" unicode="Bell&#x2d;Slash" horiz-adv-x="640" 
d="M320 -32q13 0 22.5 9.5t9.5 22.5h32q0 -26 -19 -45t-45 -19t-45 19t-19 45h32q0 -13 9.5 -22.5t22.5 -9.5zM320 384q-64 0 -103 -50l-25 20q43 54 112 60v18q0 7 4.5 11.5t11.5 4.5t11.5 -4.5t4.5 -11.5v-18q61 -5 102.5 -49t41.5 -103q0 -64 12 -94.5t37 -54.5
q16 -15 15 -36l-71 56q-25 44 -25 129q0 51 -37.5 86.5t-90.5 35.5zM637 -37q6 -5 1 -11l-10 -13q-5 -6 -11 -1l-614 483q-6 5 -1 11l10 13q5 6 11 1zM144 64h261l41 -32h-302q-33 0 -45 30q-11 29 12 51q24 24 36 53.5t13 90.5l31 -25q-3 -55 -17.5 -86t-40.5 -56
q-8 -7 -4 -16.5t15 -9.5z" />
    <glyph glyph-name="trash" unicode="Trash" horiz-adv-x="448" 
d="M440 384q8 0 8 -8v-16q0 -8 -8 -8h-19l-33 -372q-2 -18 -16 -31t-32 -13h-232q-18 0 -32 13t-16 31l-33 372h-19q-8 0 -8 8v16q0 8 8 8h104l34 45q6 8 17 13.5t21 5.5h80q10 0 21 -5.5t17 -13.5l34 -45h104zM171 410l-19 -26h144l-19 26q-5 6 -13 6h-80q-8 0 -13 -6z
M356 -17l33 369h-330l33 -369q0 -6 5 -10.5t11 -4.5h232q6 0 11 4.5t5 10.5z" />
    <glyph glyph-name="copyright" unicode="Copyright" 
d="M256 440q103 0 175.5 -72.5t72.5 -175.5t-72.5 -175.5t-175.5 -72.5t-175.5 72.5t-72.5 175.5t72.5 175.5t175.5 72.5zM472 192q0 90 -63.5 153t-152.5 63q-90 0 -153 -63.5t-63 -152.5q0 -90 63.5 -153t152.5 -63q90 0 153 63.5t63 152.5zM360 91q-40 -39 -100 -39
q-58 0 -97 40t-39 101q0 58 39 97.5t96.5 39.5t93.5 -32q4 -4 4 -9q0 -4 -2 -7l-9 -12q-7 -11 -17 -3q-30 24 -69 24q-41 0 -67.5 -28t-26.5 -70q0 -44 27 -73t68 -29q42 0 74 29q9 8 17 -2l9 -11q7 -9 -1 -16z" />
    <glyph glyph-name="at" unicode="At" 
d="M256 440q105 0 176.5 -65.5t71.5 -166.5q0 -64 -40 -101.5t-119 -37.5q-21 0 -33.5 11t-12.5 31q-13 -19 -36 -33t-50 -14q-43 0 -67 26t-24 73q0 68 40 112.5t93 44.5q55 0 74 -43q0 10 4 25q1 10 11 10h13q5 0 9 -4.5t3 -9.5l-33 -164q-3 -18 1.5 -26t18.5 -8
q50 0 83 28t33 80q0 88 -62.5 144t-153.5 56q-90 0 -153 -63t-63 -153t63 -153t153 -63q71 0 128 42q9 7 16 -2l5 -6q8 -10 -2 -18q-66 -48 -147 -48q-103 0 -175.5 72.5t-72.5 175.5t72.5 175.5t175.5 72.5zM218 97q42 0 69.5 38.5t27.5 84.5q0 30 -15 48t-43 18
q-38 0 -67.5 -34t-29.5 -87q0 -32 15.5 -50t42.5 -18z" />
    <glyph glyph-name="eye-dropper" unicode="Eye&#x2d;Dropper" 
d="M484 421q21 -21 26 -46.5t-3 -45.5t-23 -36l-83 -83l17 -17q7 -7 7 -17t-7 -17l-41 -41q-7 -7 -17 -7t-17 7l-17 17l-149 -148q-19 -19 -46 -19h-33l-40 -27q-21 -14 -40 4l-9 10q-18 18 -4 39l27 40v34q0 27 19 45l147 150l-17 17q-7 7 -7 17t7 17l41 42q7 7 17 7t17 -7
l17 -18l83 83q26 27 63.5 27t64.5 -27zM154 8l149 149l-82 84l-148 -150q-9 -10 -9 -23v-43l-32 -48l9 -9l48 32h42q16 0 23 8zM461 316q7 7 13 16t5.5 29t-18.5 38q-17 17 -41.5 17t-41.5 -17l-105 -106l-34 34l-30 -30l151 -151l30 30l-34 34z" />
    <glyph glyph-name="paint-brush" unicode="Paint&#x2d;Brush" 
d="M456 448q22 0 39 -15t17 -37q0 -19 -14 -48q-84 -155 -124.5 -208t-82.5 -58q3 -23 -3.5 -47.5t-22 -47t-46.5 -37t-73 -14.5q-73 0 -109.5 50t-36.5 126q2 -1 12.5 -8.5l19 -13.5t18 -11.5t13.5 -5.5q12 0 17 12q27 72 100 81q-2 12 -2.5 20t3 18t7 16.5t14.5 19t21 22
l31.5 29l40.5 36l53 46.5l66 58q19 17 42 17zM237 2q28 33 21 83l-65 50q-23 -2 -39.5 -9t-25.5 -19t-11.5 -16.5t-6.5 -17.5q-6 -14 -18.5 -23t-28.5 -9q-10 0 -22 6q25 -79 105 -79q60 0 91 34zM469 364q11 20 11 32q0 9 -7.5 14.5t-16.5 5.5q-11 0 -21 -9l-114 -101
q-92 -80 -104 -98q-9 -15 -5 -42q1 -4 1 -6l62 -48q28 4 48 20.5t53.5 68t92.5 163.5z" />
    <glyph glyph-name="birthday-cake" unicode="Birthday&#x2d;Cake" horiz-adv-x="448" 
d="M96 352q-13 0 -22.5 9.5t-9.5 22.5q0 14 16 28t16 36q10 0 21 -18.5t11 -37.5t-9 -29.5t-23 -10.5zM224 352q-13 0 -22.5 9.5t-9.5 22.5q0 14 16 28t16 36q10 0 21 -18.5t11 -37.5t-9 -29.5t-23 -10.5zM352 352q-13 0 -22.5 9.5t-9.5 22.5q0 14 16 28t16 36
q10 0 21 -18.5t11 -37.5t-9 -29.5t-23 -10.5zM400 192q20 0 34 -14t14 -34v-208h-448v208q0 20 14 34t34 14h32v144h32v-144h96v144h32v-144h96v144h32v-144h32zM416 -32v72q-6 3 -13.5 10t-14 10.5t-14.5 3.5q-13 0 -32.5 -16t-43 -16t-43 16t-31.5 16t-31.5 -16t-43 -16
t-43 16t-31.5 16q-9 0 -15.5 -3.5t-14.5 -10.5t-13 -10v-72h384zM416 80v64q0 7 -4.5 11.5t-11.5 4.5h-352q-7 0 -11.5 -4.5t-4.5 -11.5v-64q19 16 42.5 16t43 -16t32.5 -16q11 0 31 16t43 16q24 0 43.5 -16t31.5 -16t31.5 16t43.5 16q23 0 42 -16z" />
    <glyph glyph-name="chart-area" unicode="Chart&#x2d;Area" 
d="M500 32q12 0 12 -12v-8q0 -12 -12 -12h-488q-12 0 -12 12v360q0 12 12 12h8q12 0 12 -12v-340h468zM372 286q5 3 10 1.5t8 -6.5l90 -217h-416v96l120 156q8 10 18 0l86 -84zM96 149v-53h336l-62 152l-86 -57l-89 89z" />
    <glyph glyph-name="chart-pie" unicode="Chart&#x2d;Pie" horiz-adv-x="544" 
d="M528 160q7 0 12 -5.5t4 -12.5q-12 -83 -73 -141q-5 -4 -11 -4q-7 0 -11 5l-159 158h238zM460 36q36 40 49 92h-141zM224 160l156 -156q5 -5 4.5 -12.5t-6.5 -11.5q-60 -43 -135 -44h-3q-95 0 -166 68t-74 164q-3 92 56.5 162.5t149.5 82.5q1 1 2 1q7 0 11.5 -5t4.5 -12
v-237zM243 -32q54 1 100 28l-142 141l-9 10v231q-72 -17 -117 -75.5t-43 -133.5q3 -82 64.5 -141.5t143.5 -59.5h3zM512 225q0 -7 -4.5 -12t-11.5 -5h-224v224q0 6 4.5 11t11.5 5h1q89 -6 153 -70t70 -153zM304 240h174q-10 67 -58.5 115.5t-115.5 58.5v-174z" />
    <glyph glyph-name="chart-line" unicode="Chart&#x2d;Line" 
d="M504 32q8 0 8 -8v-16q0 -8 -8 -8h-488q-7 0 -11.5 4.5t-4.5 11.5v360q0 8 8 8h16q8 0 8 -8v-344h472zM98 185l84 83q12 12 23 0l85 -84l82 82l-45 45q-11 11 -5 26t22 15h120q7 0 11.5 -4.5t4.5 -11.5v-120q0 -10 -7.5 -17t-17 -7t-16.5 7l-45 44l-93 -93q-11 -12 -23 0
l-84 84l-73 -72q-6 -5 -11 0l-12 12q-5 5 0 11zM363 320l85 -85v85h-85z" />
    <glyph glyph-name="toggle-off" unicode="Toggle&#x2d;Off" horiz-adv-x="576" 
d="M384 352h-192q-66 0 -113 -47t-47 -113t47 -113t113 -47h192q66 0 113 47t47 113t-47 113t-113 47zM384 384q80 0 136 -56t56 -136t-56 -136t-136 -56h-192q-80 0 -136 56t-56 136t56 136t136 56h192zM192 288q-40 0 -68 -28t-28 -68t28 -68t68 -28t68 28t28 68t-28 68
t-68 28zM192 320q53 0 90.5 -37.5t37.5 -90.5t-37.5 -90.5t-90.5 -37.5t-90.5 37.5t-37.5 90.5t37.5 90.5t90.5 37.5z" />
    <glyph glyph-name="toggle-on" unicode="Toggle&#x2d;On" horiz-adv-x="576" 
d="M384 352h-192q-66 0 -113 -47t-47 -113t47 -113t113 -47h192q66 0 113 47t47 113t-47 113t-113 47zM384 384q80 0 136 -56t56 -136t-56 -136t-136 -56h-192q-80 0 -136 56t-56 136t56 136t136 56h192zM384 80q-51 0 -84 38q-28 32 -28 74q0 46 33 79t79 33t79 -33t33 -79
t-33 -79t-79 -33z" />
    <glyph glyph-name="bicycle" unicode="Bicycle" horiz-adv-x="640" 
d="M512 256q53 0 91 -38.5t37 -91.5t-38.5 -89.5t-90.5 -36.5t-90 38t-37 90q0 60 47 99l-13 20l-101 -144q-5 -7 -13 -7h-52q-11 -42 -45.5 -69t-78.5 -27q-53 0 -90.5 37.5t-37.5 90.5t37.5 90.5t90.5 37.5q29 0 56 -13l32 45h-56q-7 0 -11.5 4.5t-4.5 11.5t4.5 11.5
t11.5 4.5h84q5 0 8.5 -3.5t3.5 -8.5v-20h136l-41 64h-59q-5 0 -8.5 3.5t-3.5 8.5v8q0 5 3.5 8.5t8.5 3.5h68q9 0 14 -7l84 -133q25 12 54 12zM128 32q31 0 55.5 18t35.5 46h-107q-10 0 -14.5 8.5t1.5 16.5l67 95q-18 8 -38 8q-40 0 -68 -28t-28 -68t28 -68t68 -28zM224 128
q0 42 -32 71l-49 -71h81zM296 128l89 128h-153l-21 -31q45 -38 45 -97h40zM508 32q41 -2 70.5 26.5t29.5 69.5q0 40 -28 68t-68 28q-19 0 -37 -7l53 -84q6 -10 -4 -16l-7 -5q-10 -6 -16 4l-53 83q-33 -30 -32 -74q1 -38 28 -64.5t64 -28.5z" />
    <glyph glyph-name="bus" unicode="Bus" 
d="M128 64q-13 0 -22.5 9.5t-9.5 22.5t9.5 22.5t22.5 9.5t22.5 -9.5t9.5 -22.5t-9.5 -22.5t-22.5 -9.5zM384 64q-13 0 -22.5 9.5t-9.5 22.5t9.5 22.5t22.5 9.5t22.5 -9.5t9.5 -22.5t-9.5 -22.5t-22.5 -9.5zM488 320q10 0 17 -7t7 -17v-80q0 -10 -7 -17t-17 -7h-8v-160
q0 -13 -9.5 -22.5t-22.5 -9.5v-32q0 -13 -9.5 -22.5t-22.5 -9.5h-48q-13 0 -22.5 9.5t-9.5 22.5v32h-160v-32q0 -13 -9.5 -22.5t-22.5 -9.5h-48q-13 0 -22.5 9.5t-9.5 22.5v32q-13 0 -22.5 9.5t-9.5 22.5v160h-8q-10 0 -17 7t-7 17v80q0 10 7 17t17 7h8v48q0 34 65 57
t159 23t159 -23t65 -57v-48h8zM144 -32v32h-48v-32h48zM416 -32v32h-48v-32h48zM448 32v128h-384v-128h384zM448 192v128h-384v-128h384zM448 352v16q-2 8 -22.5 18.5t-66.5 20t-103 9.5t-103 -9.5t-66.5 -20t-22.5 -18.5v-16h384z" />
    <glyph glyph-name="closed-captioning" unicode="Closed&#x2d;Captioning" 
d="M246 260l-10 -16q-3 -5 -8 -1q-15 11 -35 14t-37 -3t-29 -21.5t-12 -38.5q0 -31 19 -49t45.5 -17.5t46.5 19.5q5 4 9 -1l11 -15q3 -4 0 -8q-25 -25 -64.5 -26.5t-70.5 24.5t-31 73q0 34 19 57.5t45.5 31.5t55 4t45.5 -20q4 -3 1 -7zM464 384q20 0 34 -14t14 -34v-288
q0 -20 -14 -34t-34 -14h-416q-20 0 -34 14t-14 34v288q0 20 14 34t34 14h416zM480 48v288q0 7 -4.5 11.5t-11.5 4.5h-416q-7 0 -11.5 -4.5t-4.5 -11.5v-288q0 -7 4.5 -11.5t11.5 -4.5h416q7 0 11.5 4.5t4.5 11.5zM431 260l-10 -16q-3 -5 -8 -1q-15 11 -35 14t-37 -3
t-29 -21.5t-12 -38.5q0 -31 19 -49t45.5 -17.5t46.5 19.5q5 4 9 -1l11 -15q3 -4 -1 -8q-24 -25 -63.5 -27t-70.5 24.5t-31 73.5q0 34 19 57.5t45.5 31.5t55 4t45.5 -20q4 -3 1 -7z" />
    <glyph glyph-name="shekel-sign" unicode="Shekel&#x2d;Sign" horiz-adv-x="384" 
d="M224 296q0 30 -21 51t-51 21h-104v-392q0 -8 -8 -8h-32q-8 0 -8 8v424q0 7 4.5 11.5t11.5 4.5h136q50 0 85 -35t35 -85v-208q0 -8 -8 -8h-32q-8 0 -8 8v208zM376 416q8 0 8 -8v-320q0 -50 -35 -85t-85 -35h-136q-7 0 -11.5 4.5t-4.5 11.5v312q0 8 8 8h32q8 0 8 -8v-280
h104q30 0 51 21t21 51v320q0 8 8 8h32z" />
    <glyph glyph-name="cart-plus" unicode="Cart&#x2d;Plus" horiz-adv-x="576" 
d="M552 384q11 0 18.5 -9t4.5 -20l-43 -208q-2 -8 -8.5 -13.5t-14.5 -5.5h-332l12 -64h296q19 0 24 -18q19 -19 19 -46t-18.5 -45.5t-45.5 -18.5t-45.5 18.5t-18.5 45.5q0 17 9 32h-146q9 -15 9 -32q0 -27 -18.5 -45.5t-45.5 -18.5t-45.5 18.5t-18.5 45.5q0 25 17 43
l-70 373h-79q-12 0 -12 12v8q0 12 12 12h85q9 0 15.5 -5.5t8.5 -14.5l8 -44h423zM464 32q-13 0 -22.5 -9.5t-9.5 -22.5t9.5 -22.5t22.5 -9.5t22.5 9.5t9.5 22.5t-9.5 22.5t-22.5 9.5zM208 32q-13 0 -22.5 -9.5t-9.5 -22.5t9.5 -22.5t22.5 -9.5t22.5 9.5t9.5 22.5t-9.5 22.5
t-22.5 9.5zM502 160l40 192h-407l36 -192h331zM272 252v8q0 12 12 12h36v36q0 12 12 12h8q12 0 12 -12v-36h36q12 0 12 -12v-8q0 -12 -12 -12h-36v-36q0 -12 -12 -12h-8q-12 0 -12 12v36h-36q-12 0 -12 12z" />
    <glyph glyph-name="cart-arrow-down" unicode="Cart&#x2d;Arrow&#x2d;Down" horiz-adv-x="576" 
d="M552 384q11 0 18.5 -9t4.5 -20l-43 -208q-2 -8 -8.5 -13.5t-14.5 -5.5h-332l12 -64h296q19 0 24 -18q19 -19 19 -46t-18.5 -45.5t-45.5 -18.5t-45.5 18.5t-18.5 45.5q0 17 9 32h-146q9 -15 9 -32q0 -27 -18.5 -45.5t-45.5 -18.5t-45.5 18.5t-18.5 45.5q0 25 17 43
l-70 373h-79q-12 0 -12 12v8q0 12 12 12h85q9 0 15.5 -5.5t8.5 -14.5l8 -44h423zM240 0q0 13 -9.5 22.5t-22.5 9.5t-22.5 -9.5t-9.5 -22.5t9.5 -22.5t22.5 -9.5t22.5 9.5t9.5 22.5zM464 -32q13 0 22.5 9.5t9.5 22.5t-9.5 22.5t-22.5 9.5t-22.5 -9.5t-9.5 -22.5t9.5 -22.5
t22.5 -9.5zM502 160l40 192h-407l36 -192h331zM396 236l-52 -52q-8 -8 -16 0l-52 52q-5 5 -2 12.5t11 7.5h35v52q0 12 12 12h8q12 0 12 -12v-52h35q8 0 11 -7.5t-2 -12.5z" />
    <glyph glyph-name="diamond" unicode="Diamond" horiz-adv-x="448" 
d="M253 435l186 -218q9 -11 9 -25t-9 -25l-186 -218q-11 -13 -29 -13t-29 13l-186 218q-9 11 -9 25t9 25l186 218q11 13 29 13t29 -13zM414 188q4 4 0 8l-185 218q-5 5 -10 0l-185 -218q-4 -4 0 -8l185 -218q5 -5 10 0z" />
    <glyph glyph-name="ship" unicode="Ship" horiz-adv-x="640" 
d="M480 82q0 -35 42 -74.5t106 -39.5q12 0 12 -12v-8q0 -12 -12 -12q-95 0 -151 73q-8 -32 -34 -52.5t-59 -20.5h-128q-33 0 -59 20.5t-34 52.5q-56 -73 -151 -73q-12 0 -12 12v8q0 12 12 12q65 0 106.5 40t41.5 74l-86 78q-12 12 -9.5 29.5t19.5 24.5l76 32v122
q0 7 4.5 11.5t11.5 4.5h48v40q0 10 7 17t17 7h144q10 0 17 -7t7 -17v-40h48q7 0 11.5 -4.5t4.5 -11.5v-122l77 -33q16 -6 19 -23t-11 -30zM256 416v-32h128v32h-128zM192 352v-92l115 49q6 3 13 3t13 -3l115 -49v92h-256zM448 96l96 88l-224 96l-224 -96l96 -88v-64
q0 -27 18.5 -45.5t45.5 -18.5h128q27 0 45.5 18.5t18.5 45.5v64z" />
    <glyph glyph-name="user-secret" unicode="User&#x2d;Secret" horiz-adv-x="448" 
d="M384 140q29 -18 46.5 -48.5t17.5 -65.5v-45q0 -19 -13 -32t-32 -13h-358q-19 0 -32 13t-13 32v45q0 36 18.5 67t48.5 49l-25 60q-4 8 1 15t13 7h42q-2 12 -2 24q0 9 2 21q-66 16 -66 40q0 25 69 41q14 51 42 86q9 12 25 12q7 0 42 -17q14 -7 28 0q35 17 42 17
q16 0 25 -12q28 -36 42 -86q69 -16 69 -41q0 -24 -66 -40q2 -12 2 -21q0 -12 -2 -24h43q8 0 13 -7t2 -15zM128 248q0 -40 28 -68t68 -28t68 28t28 68v8q-5 -3 -6 -6q-9 -25 -17 -33q-4 -4 -12 -6.5t-17.5 -2.5t-19 9t-15.5 25q-2 6 -9 6t-9 -6q-6 -17 -16 -25.5t-20 -8.5
t-17 3t-11 6q-8 7 -17 33q0 3 -5 6q-1 -5 -1 -8zM127 324q-38 -9 -51 -15q53 -21 148 -21t148 21q-14 6 -51 15q-15 60 -41 92l-12.5 -6.5t-11 -5.5t-8 -3.5t-8.5 -3t-7 -1t-9 -0.5h-7.5t-7 1t-6 2l-7.5 3t-7.5 3.5t-9.5 5l-11 5.5q-25 -31 -41 -92zM45 -32h98l31 116
q-60 98 -64 108h-29l27 -64l-25 -14q-24 -14 -37.5 -37.5t-13.5 -50.5v-45q0 -6 3.5 -9.5t9.5 -3.5zM176 -32h96l-32 120l22 38q-20 -6 -38 -6t-38 6l22 -38zM416 -19v45q0 56 -49 86l-22 14l25 66h-31l-65 -108l31 -116h98q6 0 9.5 3.5t3.5 9.5z" />
    <glyph glyph-name="motorcycle" unicode="Motorcycle" horiz-adv-x="640" 
d="M512 256q53 0 91 -38.5t37 -91.5t-38.5 -89.5t-90.5 -36.5q-52 0 -89.5 37.5t-37.5 89.5q0 64 50 103l-17 27q-33 -25 -50.5 -63t-13.5 -81q0 -7 -4.5 -12t-11.5 -5h-85q-11 -42 -45.5 -69t-78.5 -27q-53 0 -90.5 37.5t-37.5 91t38 91t91 36.5q21 0 40 -7l11 19
q-20 20 -52 20h-48q-7 0 -11.5 5t-4.5 12q0 6 5 10.5t11 4.5h48q62 0 90 -32h180l-39 64h-67q-12 0 -12 12v8q0 12 12 12h76q9 0 14 -8l27 -44l32 42q7 10 19 10h60q10 0 17 -7t7 -17v-48q0 -10 -7 -17t-17 -7h-84l26 -42q24 10 50 10zM462 356l-30 -40h84v40h-54zM128 32
q31 0 55.5 18t34.5 46h-106q-9 0 -13.5 8t-0.5 16l55 101q-12 3 -25 3q-40 0 -68 -28t-28 -68t28 -68t68 -28zM320 128q0 73 49 128h-160l-70 -128h181zM508 32q41 -2 70.5 26.5t29.5 69.5q0 40 -28 68t-68 28q-17 0 -33 -6l57 -93q6 -10 -4 -17l-7 -4q-10 -6 -17 4l-57 94
q-37 -30 -35 -78q2 -37 28.5 -63.5t63.5 -28.5z" />
    <glyph glyph-name="street-view" unicode="Street&#x2d;View" 
d="M368 88q65 -10 104.5 -29.5t39.5 -42.5q0 -33 -75 -56.5t-181 -23.5t-181 23.5t-75 56.5q0 23 39.5 42.5t104.5 29.5v-31q-48 -6 -76 -17t-28 -24q0 -20 63.5 -34t152.5 -14t152.5 14t63.5 34q0 13 -28 24t-76 17v31zM176 128q-20 0 -34 14t-14 34v64q0 26 14.5 46
t38.5 29q-13 21 -13 45q0 36 26 62t62 26t62 -26t26 -62q0 -24 -13 -45q24 -9 38.5 -29t14.5 -46v-64q0 -20 -14 -34t-34 -14v-80q0 -20 -14 -34t-34 -14h-64q-20 0 -34 14t-14 34v80zM256 416q-23 0 -39.5 -16.5t-16.5 -39.5t16.5 -39.5t39.5 -16.5t39.5 16.5t16.5 39.5
t-16.5 39.5t-39.5 16.5zM160 240v-64q0 -7 4.5 -11.5t11.5 -4.5h32v-112q0 -7 4.5 -11.5t11.5 -4.5h64q7 0 11.5 4.5t4.5 11.5v112h32q7 0 11.5 4.5t4.5 11.5v64q0 19 -13.5 33t-32.5 15q-23 -16 -50 -16t-50 16q-19 -1 -32.5 -15t-13.5 -33z" />
    <glyph glyph-name="heartbeat" unicode="Heartbeat" 
d="M469 372q43 -43 43 -104q0 -51 -34 -92h-136l-22 44l-50 -99q-4 -9 -14 -9t-15 9l-57 127l-29 -72h-121q-34 41 -34 92q0 61 43 104q46 44 107 44t106 -44q45 44 106 44t107 -44zM462 208q6 8 10 20.5t7.5 33t-5.5 44.5t-30 45q-34 33 -82 33q-27 0 -47.5 -10t-58.5 -47
q-37 36 -58 46.5t-48 10.5q-48 0 -82 -33q-21 -21 -30 -45t-5.5 -44.5t7.5 -33t10 -20.5h83l36 86q4 10 14.5 10t15.5 -9l58 -130l49 98q4 9 14 9t14 -9l28 -55h100zM269 5l135 139h44l-157 -162q-14 -14 -33.5 -14t-33.5 14l-160 162h45l137 -139q12 -11 23 0z" />
    <glyph glyph-name="venus" unicode="Venus" horiz-adv-x="288" 
d="M288 272q0 -55 -37 -96t-91 -47v-65h52q12 0 12 -12v-8q0 -12 -12 -12h-52v-52q0 -12 -12 -12h-8q-12 0 -12 12v52h-52q-12 0 -12 12v8q0 12 12 12h52v65q-54 6 -91 47t-37 96q0 60 42 102t102 42t102 -42t42 -102zM32 272q0 -46 33 -79t79 -33t79 33t33 79t-33 79
t-79 33t-79 -33t-33 -79z" />
    <glyph glyph-name="mars" unicode="Mars" horiz-adv-x="384" 
d="M372 384q12 0 12 -12v-88q0 -12 -12 -12h-8q-12 0 -12 12v45l-96 -95q32 -40 32 -90q0 -60 -42 -102t-102 -42t-102 42t-42 102t42 102t102 42q50 0 90 -32l95 96h-45q-12 0 -12 12v8q0 12 12 12h88zM144 32q46 0 79 33t33 79t-33 79t-79 33t-79 -33t-33 -79t33 -79
t79 -33z" />
    <glyph glyph-name="mercury" unicode="Mercury" horiz-adv-x="288" 
d="M288 240q0 -55 -37 -96t-91 -47v-3v-62h52q12 0 12 -12v-8q0 -12 -12 -12h-52v-52q0 -12 -12 -12h-8q-12 0 -12 12v52h-52q-12 0 -12 12v8q0 12 12 12h52v62v3q-54 6 -91 47t-37 96q0 42 22 77t59 53q-38 23 -45 64q-1 6 2.5 10t9.5 4h8q10 0 12 -10q4 -23 25.5 -38.5
t50.5 -15.5t50.5 15.5t25.5 38.5q2 10 12 10h8q6 0 9.5 -4t2.5 -10q-7 -40 -45 -64q37 -18 59 -53t22 -77zM144 128q46 0 79 33t33 79t-33 79t-79 33t-79 -33t-33 -79t33 -79t79 -33z" />
    <glyph glyph-name="transgender" unicode="Transgender" horiz-adv-x="384" 
d="M160 65v-41h52q12 0 12 -12v-8q0 -12 -12 -12h-52v-44q0 -12 -12 -12h-8q-12 0 -12 12v44h-52q-12 0 -12 12v8q0 12 12 12h52v41q-54 6 -91 47t-37 96q0 60 42 102t102 42q50 0 90 -32l95 96h-45q-12 0 -12 12v8q0 12 12 12h88q12 0 12 -12v-88q0 -12 -12 -12h-8
q-12 0 -12 12v45l-96 -95q32 -40 32 -90q0 -55 -37 -96t-91 -47zM144 96q46 0 79 33t33 79t-33 79t-79 33t-79 -33t-33 -79t33 -79t79 -33z" />
    <glyph glyph-name="transgender-alt" unicode="Transgender&#x2d;Alt" horiz-adv-x="480" 
d="M468 448q12 0 12 -12v-88q0 -12 -12 -12h-8q-12 0 -12 12v45l-96 -95q32 -40 32 -90q0 -55 -37 -96t-91 -47v-41h52q12 0 12 -12v-8q0 -12 -12 -12h-52v-44q0 -12 -12 -12h-8q-12 0 -12 12v44h-52q-12 0 -12 12v8q0 12 12 12h52v41q-54 6 -91 47t-37 96q0 51 32 90
l-29 29l-31 -31q-9 -9 -17 0l-6 5q-9 9 0 17l31 31l-44 44v-45q0 -12 -12 -12h-8q-12 0 -12 12v88q0 12 12 12h88q12 0 12 -12v-8q0 -12 -12 -12h-45l44 -44l31 31q8 9 17 0l5 -5q9 -9 0 -18l-31 -31l29 -29q40 32 90 32t90 -32l95 96h-45q-12 0 -12 12v8q0 12 12 12h88z
M240 96q46 0 79 33t33 79t-33 79t-79 33t-79 -33t-33 -79t33 -79t79 -33z" />
    <glyph glyph-name="venus-double" unicode="Venus&#x2d;Double" 
d="M288 272q0 -55 -37 -96t-91 -47v-65h52q12 0 12 -12v-8q0 -12 -12 -12h-52v-52q0 -12 -12 -12h-8q-12 0 -12 12v52h-52q-12 0 -12 12v8q0 12 12 12h52v65q-54 6 -91 47t-37 96q0 60 42 102t102 42t102 -42t42 -102zM32 272q0 -46 33 -79t79 -33t79 33t33 79t-33 79
t-79 33t-79 -33t-33 -79zM384 129v-65h52q12 0 12 -12v-8q0 -12 -12 -12h-52v-52q0 -12 -12 -12h-8q-12 0 -12 12v52h-52q-12 0 -12 12v8q0 12 12 12h52v65q-41 4 -73 30q10 12 18 26q31 -25 71 -25q46 0 79 33t33 79t-33 79t-79 33q-40 0 -71 -25q-8 14 -18 26q39 31 89 31
q60 0 102 -42t42 -102q0 -55 -37 -96t-91 -47z" />
    <glyph glyph-name="mars-double" unicode="Mars&#x2d;Double" 
d="M288 240q0 -60 -42 -102t-102 -42t-102 42t-42 102t42 102t102 42q50 0 90 -32l63 64h-45q-12 0 -12 12v8q0 12 12 12h88q12 0 12 -12v-88q0 -12 -12 -12h-8q-12 0 -12 12v45l-64 -63q32 -40 32 -90zM144 128q46 0 79 33t33 79t-33 79t-79 33t-79 -33t-33 -79t33 -79
t79 -33zM512 276v-88q0 -12 -12 -12h-8q-12 0 -12 12v45l-64 -63q32 -40 32 -90q0 -60 -42 -102t-102 -42q-56 0 -96.5 37t-46.5 92q16 1 31 6q4 -44 36 -73.5t76 -29.5q46 0 79 33t33 79q0 44 -30 76t-73 36q4 14 6 31q42 -4 75 -31l63 64h-45q-12 0 -12 12v8q0 12 12 12
h88q12 0 12 -12z" />
    <glyph glyph-name="venus-mars" unicode="Venus&#x2d;Mars" horiz-adv-x="576" 
d="M288 240q0 -55 -37 -96t-91 -47v-65h52q12 0 12 -12v-8q0 -12 -12 -12h-52v-52q0 -12 -12 -12h-8q-12 0 -12 12v52h-52q-12 0 -12 12v8q0 12 12 12h52v65q-54 6 -91 47t-37 96q0 60 42 102t102 42t102 -42t42 -102zM32 240q0 -46 33 -79t79 -33t79 33t33 79t-33 79
t-79 33t-79 -33t-33 -79zM576 436v-88q0 -12 -12 -12h-8q-12 0 -12 12v45l-64 -63q32 -40 32 -90q0 -60 -42 -102t-102 -42q-50 0 -89 31q10 12 18 26q31 -25 71 -25q46 0 79 33t33 79t-33 79t-79 33q-40 0 -71 -25q-8 14 -18 26q39 31 89 31t90 -32l63 64h-45q-12 0 -12 12
v8q0 12 12 12h88q12 0 12 -12z" />
    <glyph glyph-name="mars-stroke" unicode="Mars&#x2d;Stroke" horiz-adv-x="384" 
d="M372 384q5 0 8.5 -3.5t3.5 -8.5v-88q0 -5 -3.5 -8.5t-8.5 -3.5h-8q-5 0 -8.5 3.5t-3.5 8.5v46l-50 -50l32 -31q8 -9 0 -17l-6 -6q-9 -8 -17 0l-31 31l-24 -23q32 -40 32 -90q0 -60 -42 -102t-102 -42t-102 42t-42 102t42 102t102 42q51 0 90 -32l23 24l-31 31q-8 8 0 17
l6 6q8 8 17 0l31 -32l49 50h-45q-12 0 -12 12v8q0 12 12 12h88zM144 32q46 0 79 33t33 79t-33 79t-79 33t-79 -33t-33 -79t33 -79t79 -33z" />
    <glyph glyph-name="mars-stroke-v" unicode="Mars&#x2d;Stroke&#x2d;V" horiz-adv-x="288" 
d="M246 214q42 -42 42 -102t-42 -102t-102 -42t-102 42t-42 102t42 102q36 35 86 41v33h-44q-12 0 -12 12v8q0 12 12 12h44v70l-32 -32q-8 -8 -17 0l-6 6q-8 8 0 17l63 62q8 8 16 0l63 -62q8 -9 0 -17l-6 -6q-8 -8 -17 0l-32 32v-70h44q12 0 12 -12v-8q0 -12 -12 -12h-44
v-33q50 -6 86 -41zM144 0q46 0 79 33t33 79t-33 79t-79 33t-79 -33t-33 -79t33 -79t79 -33z" />
    <glyph glyph-name="mars-stroke-h" unicode="Mars&#x2d;Stroke&#x2d;H" horiz-adv-x="480" 
d="M475 200q8 -8 0 -17l-62 -62q-9 -8 -17 0l-6 6q-8 8 0 17l32 32h-70v-44q0 -5 -3.5 -8.5t-8.5 -3.5h-8q-5 0 -8.5 3.5t-3.5 8.5v44h-33q-6 -50 -41 -86q-42 -42 -102 -42t-102 42t-42 102t42 102t102 42t102 -42q35 -36 41 -86h33v44q0 5 3.5 8.5t8.5 3.5h8q5 0 8.5 -3.5
t3.5 -8.5v-44h70l-32 32q-8 8 0 17l6 6q8 8 17 0zM144 80q46 0 79 33t33 79t-33 79t-79 33t-79 -33t-33 -79t33 -79t79 -33z" />
    <glyph glyph-name="neuter" unicode="Neuter" horiz-adv-x="288" 
d="M288 272q0 -55 -37 -96t-91 -47v-149q0 -12 -12 -12h-8q-12 0 -12 12v149q-54 6 -91 47t-37 96q0 60 42 102t102 42t102 -42t42 -102zM144 160q46 0 79 33t33 79t-33 79t-79 33t-79 -33t-33 -79t33 -79t79 -33z" />
    <glyph glyph-name="genderless" unicode="Genderless" horiz-adv-x="288" 
d="M144 304q-46 0 -79 -33t-33 -79t33 -79t79 -33t79 33t33 79t-33 79t-79 33zM144 336q60 0 102 -42t42 -102t-42 -102t-102 -42t-102 42t-42 102t42 102t102 42z" />
    <glyph glyph-name="server" unicode="Server" 
d="M376 192q0 10 7 17t17 7t17 -7t7 -17t-7 -17t-17 -7t-17 7t-7 17zM336 168q-10 0 -17 7t-7 17t7 17t17 7t17 -7t7 -17t-7 -17t-17 -7zM512 296q0 -18 -12 -32q12 -14 12 -32v-80q0 -18 -12 -32q12 -14 12 -32v-80q0 -20 -14 -34t-34 -14h-416q-20 0 -34 14t-14 34v80
q0 18 12 32q-12 14 -12 32v80q0 18 12 32q-12 14 -12 32v80q0 20 14 34t34 14h416q20 0 34 -14t14 -34v-80zM32 296q0 -7 4.5 -11.5t11.5 -4.5h416q7 0 11.5 4.5t4.5 11.5v80q0 7 -4.5 11.5t-11.5 4.5h-416q-7 0 -11.5 -4.5t-4.5 -11.5v-80zM464 248h-416q-7 0 -11.5 -4.5
t-4.5 -11.5v-80q0 -7 4.5 -11.5t11.5 -4.5h416q7 0 11.5 4.5t4.5 11.5v80q0 7 -4.5 11.5t-11.5 4.5zM480 88q0 7 -4.5 11.5t-11.5 4.5h-416q-7 0 -11.5 -4.5t-4.5 -11.5v-80q0 -7 4.5 -11.5t11.5 -4.5h416q7 0 11.5 4.5t4.5 11.5v80zM400 312q-10 0 -17 7t-7 17t7 17t17 7
t17 -7t7 -17t-7 -17t-17 -7zM336 312q-10 0 -17 7t-7 17t7 17t17 7t17 -7t7 -17t-7 -17t-17 -7zM400 72q10 0 17 -7t7 -17t-7 -17t-17 -7t-17 7t-7 17t7 17t17 7zM336 72q10 0 17 -7t7 -17t-7 -17t-17 -7t-17 7t-7 17t7 17t17 7z" />
    <glyph glyph-name="user-plus" unicode="User&#x2d;Plus" horiz-adv-x="640" 
d="M632 224q8 0 8 -8v-16q0 -8 -8 -8h-88v-88q0 -8 -8 -8h-16q-8 0 -8 8v88h-88q-8 0 -8 8v16q0 8 8 8h88v88q0 8 8 8h16q8 0 8 -8v-88h88zM314 160q55 0 94.5 -39.5t39.5 -94.5v-42q0 -20 -14 -34t-34 -14h-352q-20 0 -34 14t-14 34v42q0 55 39.5 94.5t94.5 39.5
q13 0 38.5 -8t51.5 -8t52 8t38 8zM416 -16v42q0 42 -30 72t-72 30q-6 0 -33.5 -8t-56.5 -8t-56.5 8t-33.5 8q-42 0 -72 -30t-30 -72v-42q0 -7 4.5 -11.5t11.5 -4.5h352q7 0 11.5 4.5t4.5 11.5zM224 192q-53 0 -90.5 37.5t-37.5 90.5t37.5 90.5t90.5 37.5t90.5 -37.5
t37.5 -90.5t-37.5 -90.5t-90.5 -37.5zM224 416q-40 0 -68 -28t-28 -68t28 -68t68 -28t68 28t28 68t-28 68t-68 28z" />
    <glyph glyph-name="user-times" unicode="User&#x2d;Times" horiz-adv-x="640" 
d="M583 208l55 -55q5 -6 0 -11l-12 -12q-5 -5 -11 0l-55 55l-55 -55q-6 -5 -11 0l-12 12q-5 5 0 11l55 55l-55 55q-5 6 0 11l12 12q5 5 11 0l55 -55l55 55q6 5 11 0l12 -12q5 -5 0 -11zM224 192q-53 0 -90.5 37.5t-37.5 90.5t37.5 90.5t90.5 37.5t90.5 -37.5t37.5 -90.5
t-37.5 -90.5t-90.5 -37.5zM224 416q-40 0 -68 -28t-28 -68t28 -68t68 -28t68 28t28 68t-28 68t-68 28zM314 160q55 0 94.5 -39.5t39.5 -94.5v-42q0 -20 -14 -34t-34 -14h-352q-20 0 -34 14t-14 34v42q0 55 39.5 94.5t94.5 39.5q13 0 38.5 -8t51.5 -8t52 8t38 8zM416 -16v42
q0 42 -30 72t-72 30q-6 0 -33.5 -8t-56.5 -8t-56.5 8t-33.5 8q-42 0 -72 -30t-30 -72v-42q0 -7 4.5 -11.5t11.5 -4.5h352q7 0 11.5 4.5t4.5 11.5z" />
    <glyph glyph-name="bed" unicode="Bed" horiz-adv-x="640" 
d="M144 128q-33 0 -56.5 23.5t-23.5 56.5t23.5 56.5t56.5 23.5t56.5 -23.5t23.5 -56.5t-23.5 -56.5t-56.5 -23.5zM144 256q-20 0 -34 -14t-14 -34t14 -34t34 -14t34 14t14 34t-14 34t-34 14zM528 288q46 0 79 -33t33 -79v-168q0 -8 -8 -8h-16q-8 0 -8 8v56h-576v-56
q0 -8 -8 -8h-16q-8 0 -8 8v368q0 8 8 8h16q8 0 8 -8v-280h224v176q0 7 4.5 11.5t11.5 4.5h256zM608 96v80q0 33 -23.5 56.5t-56.5 23.5h-240v-160h320z" />
    <glyph glyph-name="train" unicode="Train" horiz-adv-x="448" 
d="M224 128q-7 0 -11.5 -4.5t-4.5 -11.5t4.5 -11.5t11.5 -4.5t11.5 4.5t4.5 11.5t-4.5 11.5t-11.5 4.5zM224 160q20 0 34 -14t14 -34t-14 -34t-34 -14t-34 14t-14 34t14 34t34 14zM320 448q50 0 89 -28.5t39 -67.5v-256q0 -34 -31.5 -61t-75.5 -33l55 -56q3 -3 1.5 -6.5
t-5.5 -3.5h-26q-5 0 -8 4l-61 60h-146l-61 -60q-3 -4 -8 -4h-26q-4 0 -5.5 3.5t1.5 6.5l55 56q-44 6 -75.5 33t-31.5 61v256q0 39 39.5 67.5t88.5 28.5h192zM32 320v-96h384v96h-384zM128 416q-36 0 -66 -20t-30 -44h384q0 22 -27.5 43t-68.5 21h-192zM320 32q36 0 66 20
t30 44v96h-384v-96q0 -24 30 -44t66 -20h192z" />
    <glyph glyph-name="subway" unicode="Subway" horiz-adv-x="448" 
d="M112 64q-20 0 -34 14t-14 34t14 34t34 14t34 -14t14 -34t-14 -34t-34 -14zM112 128q-7 0 -11.5 -4.5t-4.5 -11.5t4.5 -11.5t11.5 -4.5t11.5 4.5t4.5 11.5t-4.5 11.5t-11.5 4.5zM336 64q-20 0 -34 14t-14 34t14 34t34 14t34 -14t14 -34t-14 -34t-34 -14zM336 128
q-7 0 -11.5 -4.5t-4.5 -11.5t4.5 -11.5t11.5 -4.5t11.5 4.5t4.5 11.5t-4.5 11.5t-11.5 4.5zM320 448q50 0 89 -28.5t39 -67.5v-256q0 -34 -31.5 -61t-75.5 -33l55 -56q3 -3 1.5 -6.5t-5.5 -3.5h-26q-5 0 -8 4l-61 60h-146l-61 -60q-3 -4 -8 -4h-26q-4 0 -5.5 3.5t1.5 6.5
l55 56q-44 6 -75.5 33t-31.5 61v256q0 39 39.5 67.5t88.5 28.5h192zM32 320v-96h176v96h-176zM416 96v96h-384v-96q0 -24 30 -44t66 -20h192q36 0 66 20t30 44zM416 224v96h-176v-96h176zM32 352h384q0 22 -27.5 43t-68.5 21h-192q-36 0 -66 -20t-30 -44z" />
    <glyph glyph-name="battery-full" unicode="Battery&#x2d;Full" horiz-adv-x="640" 
d="M560 320h-512q-7 0 -11.5 -4.5t-4.5 -11.5v-224q0 -7 4.5 -11.5t11.5 -4.5h512q7 0 11.5 4.5t4.5 11.5v48h32v128h-32v48q0 7 -4.5 11.5t-11.5 4.5zM560 352q20 0 34 -14t14 -34v-16h8q10 0 17 -7t7 -17v-144q0 -10 -7 -17t-17 -7h-8v-16q0 -20 -14 -34t-34 -14h-512
q-20 0 -34 14t-14 34v224q0 20 14 34t34 14h512zM128 134q0 -6 -6 -6h-20q-6 0 -6 6v116q0 6 6 6h20q6 0 6 -6v-116zM192 134q0 -6 -6 -6h-20q-6 0 -6 6v116q0 6 6 6h20q6 0 6 -6v-116zM256 134q0 -6 -6 -6h-20q-6 0 -6 6v116q0 6 6 6h20q6 0 6 -6v-116zM320 134q0 -6 -6 -6
h-20q-6 0 -6 6v116q0 6 6 6h20q6 0 6 -6v-116zM384 134q0 -6 -6 -6h-20q-6 0 -6 6v116q0 6 6 6h20q6 0 6 -6v-116zM448 134q0 -6 -6 -6h-20q-6 0 -6 6v116q0 6 6 6h20q6 0 6 -6v-116zM512 134q0 -6 -6 -6h-20q-6 0 -6 6v116q0 6 6 6h20q6 0 6 -6v-116z" />
    <glyph glyph-name="battery-three-quarters" unicode="Battery&#x2d;Three&#x2d;Quarters" horiz-adv-x="640" 
d="M560 320h-512q-7 0 -11.5 -4.5t-4.5 -11.5v-224q0 -7 4.5 -11.5t11.5 -4.5h512q7 0 11.5 4.5t4.5 11.5v48h32v128h-32v48q0 7 -4.5 11.5t-11.5 4.5zM560 352q20 0 34 -14t14 -34v-16h8q10 0 17 -7t7 -17v-144q0 -10 -7 -17t-17 -7h-8v-16q0 -20 -14 -34t-34 -14h-512
q-20 0 -34 14t-14 34v224q0 20 14 34t34 14h512zM128 134q0 -6 -6 -6h-20q-6 0 -6 6v116q0 6 6 6h20q6 0 6 -6v-116zM192 134q0 -6 -6 -6h-20q-6 0 -6 6v116q0 6 6 6h20q6 0 6 -6v-116zM256 134q0 -6 -6 -6h-20q-6 0 -6 6v116q0 6 6 6h20q6 0 6 -6v-116zM320 134q0 -6 -6 -6
h-20q-6 0 -6 6v116q0 6 6 6h20q6 0 6 -6v-116zM384 134q0 -6 -6 -6h-20q-6 0 -6 6v116q0 6 6 6h20q6 0 6 -6v-116zM448 134q0 -6 -6 -6h-20q-6 0 -6 6v116q0 6 6 6h20q6 0 6 -6v-116z" />
    <glyph glyph-name="battery-half" unicode="Battery&#x2d;Half" horiz-adv-x="640" 
d="M560 320h-512q-7 0 -11.5 -4.5t-4.5 -11.5v-224q0 -7 4.5 -11.5t11.5 -4.5h512q7 0 11.5 4.5t4.5 11.5v48h32v128h-32v48q0 7 -4.5 11.5t-11.5 4.5zM560 352q20 0 34 -14t14 -34v-16h8q10 0 17 -7t7 -17v-144q0 -10 -7 -17t-17 -7h-8v-16q0 -20 -14 -34t-34 -14h-512
q-20 0 -34 14t-14 34v224q0 20 14 34t34 14h512zM128 134q0 -6 -6 -6h-20q-6 0 -6 6v116q0 6 6 6h20q6 0 6 -6v-116zM192 134q0 -6 -6 -6h-20q-6 0 -6 6v116q0 6 6 6h20q6 0 6 -6v-116zM256 134q0 -6 -6 -6h-20q-6 0 -6 6v116q0 6 6 6h20q6 0 6 -6v-116zM320 134q0 -6 -6 -6
h-20q-6 0 -6 6v116q0 6 6 6h20q6 0 6 -6v-116z" />
    <glyph glyph-name="battery-quarter" unicode="Battery&#x2d;Quarter" horiz-adv-x="640" 
d="M560 320h-512q-7 0 -11.5 -4.5t-4.5 -11.5v-224q0 -7 4.5 -11.5t11.5 -4.5h512q7 0 11.5 4.5t4.5 11.5v48h32v128h-32v48q0 7 -4.5 11.5t-11.5 4.5zM560 352q20 0 34 -14t14 -34v-16h8q10 0 17 -7t7 -17v-144q0 -10 -7 -17t-17 -7h-8v-16q0 -20 -14 -34t-34 -14h-512
q-20 0 -34 14t-14 34v224q0 20 14 34t34 14h512zM128 134q0 -6 -6 -6h-20q-6 0 -6 6v116q0 6 6 6h20q6 0 6 -6v-116zM192 134q0 -6 -6 -6h-20q-6 0 -6 6v116q0 6 6 6h20q6 0 6 -6v-116z" />
    <glyph glyph-name="battery-empty" unicode="Battery&#x2d;Empty" horiz-adv-x="640" 
d="M560 320h-512q-7 0 -11.5 -4.5t-4.5 -11.5v-224q0 -7 4.5 -11.5t11.5 -4.5h512q7 0 11.5 4.5t4.5 11.5v48h32v128h-32v48q0 7 -4.5 11.5t-11.5 4.5zM560 352q20 0 34 -14t14 -34v-16h8q10 0 17 -7t7 -17v-144q0 -10 -7 -17t-17 -7h-8v-16q0 -20 -14 -34t-34 -14h-512
q-20 0 -34 14t-14 34v224q0 20 14 34t34 14h512z" />
    <glyph glyph-name="mouse-pointer" unicode="Mouse&#x2d;Pointer" horiz-adv-x="320" 
d="M154 -40l-42 101l-47 -52q-17 -20 -41 -10.5t-24 35.5v375q0 26 23.5 36t41.5 -9l245 -262q17 -19 7 -42.5t-35 -23.5h-65l42 -104q7 -14 1 -29t-21 -21l-36 -15q-14 -6 -28.5 0t-20.5 21zM122 121l62 -149q2 -6 7 -4l36 15q6 3 3 9l-61 148h113q4 0 5.5 4.5t-1.5 7.5
l-245 262q-2 3 -5.5 1.5t-3.5 -6.5v-375q0 -4 3.5 -5.5t5.5 1.5z" />
    </font>
</defs>
</svg>
